DivxDepo.NET - Film indir - Dizi indir - Oyun indir
Hoşgeldin, Ziyaretçi: Üye Ol
DivxDepo.Net'e Hoşgeldiniz :)
Umarım Aradığınızı Bulursunuz.İsteklerinizi İletişim Sayfamızdan bildirebilirsiniz.

DivxDepo.Net Önerdiklerimiz
Konuyu Oyla:
  • Toplam: 0 Oy - Ortalama: 0
  • 1
  • 2
  • 3
  • 4
  • 5
Zipper (2015) 1080p BluRay x264 DD5.1-RARBG Konuyu Okuyanlar: 1 Ziyaretçi
#1
Zipper_2015_1080p_Blu_Ray_x264_ROVERS.png

Zipper.2015.1080p.BluRay.x264.DD5.1-RARBG

Kod:
http://uploaded.net/file/frxlcdiu/Zipper.2015.1080p.BluRay.x264.DD5.1-RARBG.part08.rar
http://uploaded.net/file/cehhx6tz/Zipper.2015.1080p.BluRay.x264.DD5.1-RARBG.part05.rar
http://uploaded.net/file/g9xdtxj3/Zipper.2015.1080p.BluRay.x264.DD5.1-RARBG.part04.rar
http://uploaded.net/file/mebtaost/Zipper.2015.1080p.BluRay.x264.DD5.1-RARBG.part06.rar
http://uploaded.net/file/q7dpbqck/Zipper.2015.1080p.BluRay.x264.DD5.1-RARBG.part07.rar
http://uploaded.net/file/kqcvodxm/Zipper.2015.1080p.BluRay.x264.DD5.1-RARBG.part03.rar
http://uploaded.net/file/to9jwln0/Zipper.2015.1080p.BluRay.x264.DD5.1-RARBG.part01.rar
http://uploaded.net/file/j119lrv3/Zipper.2015.1080p.BluRay.x264.DD5.1-RARBG.part02.rar
http://uploaded.net/file/am84xz99/Zipper.2015.1080p.BluRay.x264.DD5.1-RARBG.part09.rar
http://uploaded.net/file/mpd30ido/Zipper.2015.1080p.BluRay.x264.DD5.1-RARBG.part10.rar

Kod:
http://uploadrocket.net/29q4blvn2gu4/Zipper.2015.1080p.BluRay.x264.DD5.1-RARBG.part01.rar.html
http://uploadrocket.net/hvziq6j6vkud/Zipper.2015.1080p.BluRay.x264.DD5.1-RARBG.part02.rar.html
http://uploadrocket.net/d6d7jvj9nqxi/Zipper.2015.1080p.BluRay.x264.DD5.1-RARBG.part03.rar.html
http://uploadrocket.net/d6yj4brlm59a/Zipper.2015.1080p.BluRay.x264.DD5.1-RARBG.part04.rar.html
http://uploadrocket.net/m8fpg6nfhnm5/Zipper.2015.1080p.BluRay.x264.DD5.1-RARBG.part05.rar.html
http://uploadrocket.net/2fzwzaa3fs85/Zipper.2015.1080p.BluRay.x264.DD5.1-RARBG.part06.rar.html
http://uploadrocket.net/nzfnaomdvdtl/Zipper.2015.1080p.BluRay.x264.DD5.1-RARBG.part07.rar.html
http://uploadrocket.net/dxl9xks67vul/Zipper.2015.1080p.BluRay.x264.DD5.1-RARBG.part08.rar.html
http://uploadrocket.net/a37sj9eemarj/Zipper.2015.1080p.BluRay.x264.DD5.1-RARBG.part09.rar.html
http://uploadrocket.net/ggkdp5unceco/Zipper.2015.1080p.BluRay.x264.DD5.1-RARBG.part10.rar.html

Kod:
http://rapidgator.net/file/73d1c753afa42a27fe52e87de7d121c4/Zipper.2015.1080p.BluRay.x264.DD5.1-RARBG.part10.rar.html
http://rapidgator.net/file/4fe3373db63f577bb02f0643281827de/Zipper.2015.1080p.BluRay.x264.DD5.1-RARBG.part09.rar.html
http://rapidgator.net/file/b291de693c596483b6d689364ffd162f/Zipper.2015.1080p.BluRay.x264.DD5.1-RARBG.part08.rar.html
http://rapidgator.net/file/12101a468f93047769932ff54c7cca88/Zipper.2015.1080p.BluRay.x264.DD5.1-RARBG.part07.rar.html
http://rapidgator.net/file/3d67551d759b224715ff907a0fec0af5/Zipper.2015.1080p.BluRay.x264.DD5.1-RARBG.part06.rar.html
http://rapidgator.net/file/5d5b87ab13e6ae62333ab2aa4b0d08eb/Zipper.2015.1080p.BluRay.x264.DD5.1-RARBG.part05.rar.html
http://rapidgator.net/file/f474f7b2fdba0af4cb241540ff0b1b08/Zipper.2015.1080p.BluRay.x264.DD5.1-RARBG.part03.rar.html
http://rapidgator.net/file/bc6a8af4ccccd1e27bb48156c5e42af2/Zipper.2015.1080p.BluRay.x264.DD5.1-RARBG.part02.rar.html
http://rapidgator.net/file/41a146df1198bc4453b79a00f8d3ea6f/Zipper.2015.1080p.BluRay.x264.DD5.1-RARBG.part01.rar.html
http://rapidgator.net/file/66c02779bdb36eefef2582987b147928/Zipper.2015.1080p.BluRay.x264.DD5.1-RARBG.part04.rar.html

Kod:
http://www.imdb.com/title/tt3346224

Zipper_2015_1080p_Blu_Ray_x264_DD5_1_RARBG_s.jpg

Kod:
Video
ID                                       : 1
Format                                   : AVC
Format/Info                              : Advanced Video Codec
Format profile                           : High@L4.1
Format settings, CABAC                   : Yes
Format settings, ReFrames                : 4 frames
Codec ID                                 : V_MPEG4/ISO/AVC
Duration                                 : 1h 52mn
Bit rate                                 : 10.8 Mbps
Nominal bit rate                         : 11.5 Mbps
Width                                    : 1 920 pixels
Height                                   : 800 pixels
Display aspect ratio                     : 2.40:1
Frame rate mode                          : Constant
Frame rate                               : 23.976 fps
Color space                              : YUV
Chroma subsampling                       : 4:2:0
Bit depth                                : 8 bits
Scan type                                : Progressive
Bits/(Pixel*Frame)                       : 0.293
Stream size                              : 8.50 GiB (94%)
Title                                    : Zipper.2015.1080p.BluRay.x264.DD5.1-RARBG
Writing library                          : x264 core 146 r2555 0c21480
Encoding settings                        : cabac=1 / ref=4 / deblock=1:-2:-2 / analyse=0x3:0x113 / me=umh / subme=7 / psy=1 / psy_rd=1.00:0.15 / mixed_ref=1 / me_range=16 / chroma_me=1 / trellis=1 / 8x8dct=1 / cqm=0 / deadzone=21,11 / fast_pskip=1 / chroma_qp_offset=-3 / threads=12 / lookahead_threads=3 / sliced_threads=0 / nr=0 / decimate=1 / interlaced=0 / bluray_compat=0 / constrained_intra=0 / bframes=3 / b_pyramid=2 / b_adapt=2 / b_bias=0 / direct=3 / weightb=1 / open_gop=0 / weightp=2 / keyint=250 / keyint_min=25 / scenecut=40 / intra_refresh=0 / rc_lookahead=50 / rc=abr / mbtree=1 / bitrate=11500 / ratetol=1.0 / qcomp=0.60 / qpmin=0 / qpmax=69 / qpstep=4 / vbv_maxrate=31250 / vbv_bufsize=31250 / nal_hrd=none / filler=0 / ip_ratio=1.40 / aq=1:1.00
Language                                 : English
Default                                  : Yes
Forced                                   : No

Audio
ID                                       : 2
Format                                   : AC-3
Format/Info                              : Audio Coding 3
Mode extension                           : CM (complete main)
Format settings, Endianness              : Big
Codec ID                                 : A_AC3
Duration                                 : 1h 52mn
Bit rate mode                            : Constant
Bit rate                                 : 448 Kbps
Channel(s)                               : 6 channels
Channel positions                        : Front: L C R, Side: L R, LFE
Sampling rate                            : 48.0 KHz
Compression mode                         : Lossy
Stream size                              : 361 MiB (4%)
Title                                    : Zipper.2015.1080p.BluRay.x264.DD5.1-RARBG
Language                                 : English
Default                                  : Yes
Forced                                   : No

Text #1
ID                                       : 3
Format                                   : UTF-8
Codec ID                                 : S_TEXT/UTF8
Codec ID/Info                            : UTF-8 Plain Text
Language                                 : English
Default                                  : Yes
Forced                                   : No

Text #2
ID                                       : 4
Format                                   : UTF-8
Codec ID                                 : S_TEXT/UTF8
Codec ID/Info                            : UTF-8 Plain Text
Title                                    : SDH
Language                                 : English
Default                                  : No
Forced                                   : No
Ara
Cevapla


Konu ile Alakalı Benzer Konular
Konular Yazar Yorumlar Okunma Son Yorum
  Good Kids | 2016 | 720p | BluRay | X264 | iNVANDRAREN breath-10 0 108 08-01-2017, Saat: 23:44
Son Yorum: breath-10
  The Girl on the Train | 2016 | 720p | BluRay | x264 | SPARKS breath-10 0 48 08-01-2017, Saat: 23:44
Son Yorum: breath-10
  Inferno - Cehennem | 2016 | 720p | BluRay | x264 | SPARKS breath-10 0 70 08-01-2017, Saat: 23:41
Son Yorum: breath-10
  Masterminds | 2016 | 720p | BluRay | X264 | AMIABLE breath-10 0 76 08-01-2017, Saat: 23:37
Son Yorum: breath-10
  Deepwater Horizon | 2016 | 720p | BluRay | x264 | SPARKS breath-10 0 160 04-01-2017, Saat: 21:29
Son Yorum: breath-10

Hızlı Menü:

Hakkımızda
Sitemizde yer alan tüm videolar, filmler kaynak kodları ile Turbobit, Uploaded, Ul.to v.b. dosya paylaşım sitelerinden alınmaktadır. Telif hakları sorumluluğu bu sitelere aittir. Dosyaların hiç biri sunucularımızda bulunmamaktadır. Yine de hak sahiplerinin talep etmesi halinde istenen içerik siteden kaldırılabilir. İletişim adresi sitemizde mevcuttur. İletişim / Contact (Reklam, Dmca, Telif vs):okaan9999@gmail.com
Forum