DivxDepo.NET - Film indir - Dizi indir - Oyun indir
Hoşgeldin, Ziyaretçi: Üye Ol
DivxDepo.Net'e Hoşgeldiniz :)
Umarım Aradığınızı Bulursunuz.İsteklerinizi İletişim Sayfamızdan bildirebilirsiniz.

DivxDepo.Net Önerdiklerimiz
Konuyu Oyla:
  • Toplam: 0 Oy - Ortalama: 0
  • 1
  • 2
  • 3
  • 4
  • 5
Werewolf The Beast Among Us (2012) UNRATED 1080p BluRay x264 DTS-FGT Konuyu Okuyanlar: 1 Ziyaretçi
#1
Werewolf_The_Beast_Among_Us_2012_UNRATED_1080p_B.png

Werewolf.The.Beast.Among.Us.2012.UNRATED.1080p.BluRay.x264.DTS-FGT


Kod:
http://uploaded.net/file/3eaqbc6r/Werewolf.The.Beast.Among.Us.2012.UNRATED.1080p.BluRay.x264.DTS-FGT.part2.rar
http://uploaded.net/file/86dpl068/Werewolf.The.Beast.Among.Us.2012.UNRATED.1080p.BluRay.x264.DTS-FGT.part3.rar
http://uploaded.net/file/asoyq8mc/Werewolf.The.Beast.Among.Us.2012.UNRATED.1080p.BluRay.x264.DTS-FGT.part1.rar
http://uploaded.net/file/sczi25w3/Werewolf.The.Beast.Among.Us.2012.UNRATED.1080p.BluRay.x264.DTS-FGT.part4.rar


Kod:
http://rapidgator.net/file/63534ba5578cc8fadec63dcd2eea7735/Werewolf.The.Beast.Among.Us.2012.UNRATED.1080p.BluRay.x264.DTS-FGT.part3.rar.html
http://rapidgator.net/file/22e7ea9991243e8215c6570197869ac7/Werewolf.The.Beast.Among.Us.2012.UNRATED.1080p.BluRay.x264.DTS-FGT.part4.rar.html
http://rapidgator.net/file/22d30f80e29893a9d7faf76c160ba710/Werewolf.The.Beast.Among.Us.2012.UNRATED.1080p.BluRay.x264.DTS-FGT.part1.rar.html
http://rapidgator.net/file/0dbed1db46baf0c08275c653b6050caf/Werewolf.The.Beast.Among.Us.2012.UNRATED.1080p.BluRay.x264.DTS-FGT.part2.rar.html


Kod:
http://imdb.com/title/tt1987028/


83910365904170283561_thumb.png
64430365094052515045_thumb.png
65174840063465411031_thumb.png
16293088668834195583_thumb.png
50209579013805956431_thumb.png
81105613972006475222_thumb.png

Kod:
Video
ID                                       : 1
Format                                   : AVC
Format/Info                              : Advanced Video Codec
Format profile                           : High@L4.1
Format settings, CABAC                   : Yes
Format settings, ReFrames                : 4 frames
Codec ID                                 : V_MPEG4/ISO/AVC
Duration                                 : 1h 33mn
Bit rate                                 : 10.6 Mbps
Width                                    : 1 920 pixels
Height                                   : 1 080 pixels
Display aspect ratio                     : 16:9
Frame rate mode                          : Constant
Frame rate                               : 23.976 fps
Color space                              : YUV
Chroma subsampling                       : 4:2:0
Bit depth                                : 8 bits
Scan type                                : Progressive
Bits/(Pixel*Frame)                       : 0.214
Stream size                              : 6.77 GiB (86%)
Writing library                          : x264 core 125 r2208 d9d2288
Encoding settings                        : cabac=1 / ref=4 / deblock=1:-3:-3 / analyse=0x3:0x113 / me=umh / subme=10 / psy=1 / psy_rd=1.05:0.10 / mixed_ref=1 / me_range=32 / chroma_me=1 / trellis=2 / 8x8dct=1 / cqm=0 / deadzone=21,11 / fast_pskip=0 / chroma_qp_offset=-2 / threads=8 / lookahead_threads=1 / sliced_threads=0 / nr=0 / decimate=1 / interlaced=0 / bluray_compat=0 / constrained_intra=0 / bframes=5 / b_pyramid=2 / b_adapt=2 / b_bias=0 / direct=3 / weightb=1 / open_gop=0 / weightp=2 / keyint=250 / keyint_min=23 / scenecut=40 / intra_refresh=0 / rc=2pass / mbtree=0 / bitrate=10632 / ratetol=1.0 / qcomp=0.70 / qpmin=0 / qpmax=69 / qpstep=4 / cplxblur=20.0 / qblur=0.5 / ip_ratio=1.40 / pb_ratio=1.30 / aq=2:1.00
Language                                 : English
Default                                  : Yes
Forced                                   : No

Audio
ID                                       : 2
Format                                   : DTS
Format/Info                              : Digital Theater Systems
Mode                                     : 16
Format settings, Endianness              : Big
Codec ID                                 : A_DTS
Duration                                 : 1h 33mn
Bit rate mode                            : Constant
Bit rate                                 : 1 509 Kbps
Channel(s)                               : 6 channels
Channel positions                        : Front: L C R, Side: L R, LFE
Sampling rate                            : 48.0 KHz
Bit depth                                : 24 bits
Compression mode                         : Lossy
Stream size                              : 1 008 MiB (12%)
Language                                 : English
Default                                  : Yes
Forced                                   : No

Text #1
ID                                       : 3
Format                                   : UTF-8
Codec ID                                 : S_TEXT/UTF8
Codec ID/Info                            : UTF-8 Plain Text
Language                                 : English
Default                                  : No
Forced                                   : No

Text #2
ID                                       : 4
Format                                   : UTF-8
Codec ID                                 : S_TEXT/UTF8
Codec ID/Info                            : UTF-8 Plain Text
Title                                    : SDH
Language                                 : English
Default                                  : No
Forced                                   : No

Menu
00:00:00.000                             : en:
00:03:40.886                             : en:
00:08:21.083                             : en:
00:13:13.250                             : en:
00:16:07.508                             : en:
00:21:14.022                             : en:
00:26:29.713                             : en:
00:31:57.748                             : en:
00:36:37.069                             : en:
00:41:07.256                             : en:
00:46:22.571                             : en:
00:51:03.810                             : en:
00:54:51.621                             : en:
00:58:31.131                             : en:
01:04:22.608                             : en:
01:07:55.821                             : en:
01:13:54.847                             : en:
01:17:14.254                             : en:
01:21:19.040                             : en:
01:26:37.149                             : en:
Ara
Cevapla


Konu ile Alakalı Benzer Konular
Konular Yazar Yorumlar Okunma Son Yorum
  Ben Hur | 2016 | 720p | BluRay | x264 | GECKOS breath-10 0 45 27-11-2016, Saat: 12:44
Son Yorum: breath-10
  The Whole Truth | 2016 | 720p | BluRay | x264 breath-10 0 173 27-11-2016, Saat: 12:34
Son Yorum: breath-10
  Jason Bourne | 2016 | 720p | BluRay | x264 | SPARKS breath-10 0 37 18-11-2016, Saat: 19:47
Son Yorum: breath-10
  Suicide Squad | 2016 | 1080p | WEB-DL | H264 | AC3 | EVO breath-10 0 39 15-11-2016, Saat: 23:34
Son Yorum: breath-10
  Mechanic Resurrection | 2016 | 720p | BluRay | x264 | DD5 1 | HDC breath-10 0 56 10-11-2016, Saat: 21:10
Son Yorum: breath-10

Hızlı Menü:

Hakkımızda
Sitemizde yer alan tüm videolar, filmler kaynak kodları ile Turbobit, Uploaded, Ul.to v.b. dosya paylaşım sitelerinden alınmaktadır. Telif hakları sorumluluğu bu sitelere aittir. Dosyaların hiç biri sunucularımızda bulunmamaktadır. Yine de hak sahiplerinin talep etmesi halinde istenen içerik siteden kaldırılabilir. İletişim adresi sitemizde mevcuttur. İletişim / Contact (Reklam, Dmca, Telif vs):okaan9999@gmail.com
Forum