DivxDepo.NET - Film indir - Dizi indir - Oyun indir
Hoşgeldin, Ziyaretçi: Üye Ol
DivxDepo.Net'e Hoşgeldiniz :)
Umarım Aradığınızı Bulursunuz.İsteklerinizi İletişim Sayfamızdan bildirebilirsiniz.

DivxDepo.Net Önerdiklerimiz
Konuyu Oyla:
  • Toplam: 0 Oy - Ortalama: 0
  • 1
  • 2
  • 3
  • 4
  • 5
Unforgiven (1992) 1080p BluRay x264-WPi Konuyu Okuyanlar: 1 Ziyaretçi
#1
Unforgiven_1992_1080p_Blu_Ray_x264_WPi.png

Unforgiven.1992.1080p.BluRay.x264-WPi

Kod:
http://uploaded.net/file/929pl0og/Unforgiven.1992.1080p.BluRay.x264-WPi.part04.rar
http://uploaded.net/file/tmrm3p7z/Unforgiven.1992.1080p.BluRay.x264-WPi.part01.rar
http://uploaded.net/file/74qvxuny/Unforgiven.1992.1080p.BluRay.x264-WPi.part03.rar
http://uploaded.net/file/4t5d3920/Unforgiven.1992.1080p.BluRay.x264-WPi.part02.rar
http://uploaded.net/file/nnc5kof8/Unforgiven.1992.1080p.BluRay.x264-WPi.part07.rar
http://uploaded.net/file/h3hn0s3p/Unforgiven.1992.1080p.BluRay.x264-WPi.part09.rar
http://uploaded.net/file/h1tnna6s/Unforgiven.1992.1080p.BluRay.x264-WPi.part08.rar
http://uploaded.net/file/k7u50t0r/Unforgiven.1992.1080p.BluRay.x264-WPi.part05.rar
http://uploaded.net/file/e3ynx47r/Unforgiven.1992.1080p.BluRay.x264-WPi.part06.rar

Kod:
http://uploadrocket.net/6vdo25t4s0ho/Unforgiven.1992.1080p.BluRay.x264-WPi.part01.rar.html
http://uploadrocket.net/vmqffrv6oqw3/Unforgiven.1992.1080p.BluRay.x264-WPi.part02.rar.html
http://uploadrocket.net/rguf585wd1vq/Unforgiven.1992.1080p.BluRay.x264-WPi.part03.rar.html
http://uploadrocket.net/8721d7b40zj8/Unforgiven.1992.1080p.BluRay.x264-WPi.part04.rar.html
http://uploadrocket.net/ektzwqe0fs1p/Unforgiven.1992.1080p.BluRay.x264-WPi.part05.rar.html
http://uploadrocket.net/pz3bhdr7livg/Unforgiven.1992.1080p.BluRay.x264-WPi.part06.rar.html
http://uploadrocket.net/0vz82pp06sws/Unforgiven.1992.1080p.BluRay.x264-WPi.part07.rar.html
http://uploadrocket.net/7ly3wjrq72l6/Unforgiven.1992.1080p.BluRay.x264-WPi.part08.rar.html
http://uploadrocket.net/zvg52dd0n6f7/Unforgiven.1992.1080p.BluRay.x264-WPi.part09.rar.html

Kod:
http://rapidgator.net/file/34da3dae3d19facc4e4e8ae791538943/Unforgiven.1992.1080p.BluRay.x264-WPi.part05.rar.html
http://rapidgator.net/file/4c62eb843f37e0e17bb1bd1ae68aaf6a/Unforgiven.1992.1080p.BluRay.x264-WPi.part04.rar.html
http://rapidgator.net/file/0e65985c05eaa2c727d137af7baaff52/Unforgiven.1992.1080p.BluRay.x264-WPi.part06.rar.html
http://rapidgator.net/file/83bdd844462c99dfc0cffd0c15ce9d28/Unforgiven.1992.1080p.BluRay.x264-WPi.part03.rar.html
http://rapidgator.net/file/e3135f814e1d9dcc74bd617e0597d155/Unforgiven.1992.1080p.BluRay.x264-WPi.part01.rar.html
http://rapidgator.net/file/9b28bf9696a4563ac7b917114c72fd23/Unforgiven.1992.1080p.BluRay.x264-WPi.part07.rar.html
http://rapidgator.net/file/b75d0a95d68311cbf4f9148b2bb04527/Unforgiven.1992.1080p.BluRay.x264-WPi.part08.rar.html
http://rapidgator.net/file/95b1b7edb807c84fda324e06f2fef3a8/Unforgiven.1992.1080p.BluRay.x264-WPi.part02.rar.html
http://rapidgator.net/file/d68969b9d1cf73638521df332074aa0f/Unforgiven.1992.1080p.BluRay.x264-WPi.part09.rar.html

Kod:
http://imdb.com/title/tt0105695/

unforgiven_1992_1080p_bluray_x264_wpi_s.jpg

Kod:
Video
ID                                       : 1
Format                                   : AVC
Format/Info                              : Advanced Video Codec
Format profile                           : High@L5.1
Format settings, CABAC                   : Yes
Format settings, ReFrames                : 5 frames
Codec ID                                 : V_MPEG4/ISO/AVC
Duration                                 : 2h 10mn
Bit rate                                 : 8 064 Kbps
Width                                    : 1 920 pixels
Height                                   : 816 pixels
Display aspect ratio                     : 2.35:1
Frame rate mode                          : Constant
Frame rate                               : 23.976 fps
Color space                              : YUV
Chroma subsampling                       : 4:2:0
Bit depth                                : 8 bits
Scan type                                : Progressive
Bits/(Pixel*Frame)                       : 0.215
Stream size                              : 7.21 GiB (91%)
Title                                    : Video
Writing library                          : x264 core 59 r807 08b5132
Encoding settings                        : cabac=1 / ref=5 / deblock=1:0:0 / analyse=0x3:0x133 / me=umh / subme=7 / brdo=1 / mixed_ref=1 / me_range=16 / chroma_me=1 / trellis=1 / 8x8dct=1 / cqm=0 / deadzone=21,11 / chroma_qp_offset=0 / threads=6 / nr=0 / decimate=1 / mbaff=0 / bframes=3 / b_pyramid=1 / b_adapt=1 / b_bias=0 / direct=1 / wpredb=1 / bime=1 / keyint=250 / keyint_min=25 / scenecut=40(pre) / rc=2pass / bitrate=8064 / ratetol=1.0 / rceq='blurCplx^(1-qComp)' / qcomp=1.00 / qpmin=10 / qpmax=51 / qpstep=4 / cplxblur=20.0 / qblur=0.5 / ip_ratio=1.40 / pb_ratio=1.30 / aq=2:1.00
Default                                  : Yes
Forced                                   : No

Audio
ID                                       : 2
Format                                   : AC-3
Format/Info                              : Audio Coding 3
Mode extension                           : CM (complete main)
Format settings, Endianness              : Big
Codec ID                                 : A_AC3
Duration                                 : 2h 10mn
Bit rate mode                            : Constant
Bit rate                                 : 640 Kbps
Channel(s)                               : 6 channels
Channel positions                        : Front: L C R, Side: L R, LFE
Sampling rate                            : 48.0 KHz
Compression mode                         : Lossy
Stream size                              : 598 MiB (7%)
Title                                    : English (AC3)
Language                                 : English
Default                                  : Yes
Forced                                   : No
Ara
Cevapla


Konu ile Alakalı Benzer Konular
Konular Yazar Yorumlar Okunma Son Yorum
  Ben Hur | 2016 | 720p | BluRay | x264 | GECKOS breath-10 0 62 27-11-2016, Saat: 12:44
Son Yorum: breath-10
  The Whole Truth | 2016 | 720p | BluRay | x264 breath-10 0 182 27-11-2016, Saat: 12:34
Son Yorum: breath-10
  Jason Bourne | 2016 | 720p | BluRay | x264 | SPARKS breath-10 0 47 18-11-2016, Saat: 19:47
Son Yorum: breath-10
  Suicide Squad | 2016 | 1080p | WEB-DL | H264 | AC3 | EVO breath-10 0 49 15-11-2016, Saat: 23:34
Son Yorum: breath-10
  Mechanic Resurrection | 2016 | 720p | BluRay | x264 | DD5 1 | HDC breath-10 0 65 10-11-2016, Saat: 21:10
Son Yorum: breath-10

Hızlı Menü:

Hakkımızda
Sitemizde yer alan tüm videolar, filmler kaynak kodları ile Turbobit, Uploaded, Ul.to v.b. dosya paylaşım sitelerinden alınmaktadır. Telif hakları sorumluluğu bu sitelere aittir. Dosyaların hiç biri sunucularımızda bulunmamaktadır. Yine de hak sahiplerinin talep etmesi halinde istenen içerik siteden kaldırılabilir. İletişim adresi sitemizde mevcuttur. İletişim / Contact (Reklam, Dmca, Telif vs):okaan9999@gmail.com
Forum