DivxDepo.NET - Film indir - Dizi indir - Oyun indir
Hoşgeldin, Ziyaretçi: Üye Ol
DivxDepo.Net'e Hoşgeldiniz :)
Umarım Aradığınızı Bulursunuz.İsteklerinizi İletişim Sayfamızdan bildirebilirsiniz.

DivxDepo.Net Önerdiklerimiz
Konuyu Oyla:
  • Toplam: 0 Oy - Ortalama: 0
  • 1
  • 2
  • 3
  • 4
  • 5
Unexpected (2015) 1080p BluRay x264 DD5.1-RARBG Konuyu Okuyanlar: 1 Ziyaretçi
#1
Unexpected_2015_720p_Blu_Ray_x264_DD5_1_RARBG.png

Unexpected.2015.1080p.BluRay.x264.DD5.1-RARBG

Kod:
http://uploaded.net/file/hwyi8sii/Unexpected.2015.1080p.BluRay.x264.DD5.1-RARBG.part2.rar
http://uploaded.net/file/2lg60gil/Unexpected.2015.1080p.BluRay.x264.DD5.1-RARBG.part3.rar
http://uploaded.net/file/7e9h8n85/Unexpected.2015.1080p.BluRay.x264.DD5.1-RARBG.part5.rar
http://uploaded.net/file/kbqxyr0j/Unexpected.2015.1080p.BluRay.x264.DD5.1-RARBG.part4.rar
http://uploaded.net/file/mxfkworl/Unexpected.2015.1080p.BluRay.x264.DD5.1-RARBG.part1.rar
http://uploaded.net/file/ybf3hqqm/Unexpected.2015.1080p.BluRay.x264.DD5.1-RARBG.part6.rar
http://uploaded.net/file/y0v4v9ad/Unexpected.2015.1080p.BluRay.x264.DD5.1-RARBG.part7.rar
http://uploaded.net/file/qpxcypca/Unexpected.2015.1080p.BluRay.x264.DD5.1-RARBG.part8.rar

Kod:
http://uploadrocket.net/pd7bmqk5bvtx/Unexpected.2015.1080p.BluRay.x264.DD5.1-RARBG.part1.rar.html
http://uploadrocket.net/yxwsnewg89m7/Unexpected.2015.1080p.BluRay.x264.DD5.1-RARBG.part2.rar.html
http://uploadrocket.net/ekelooo5pckk/Unexpected.2015.1080p.BluRay.x264.DD5.1-RARBG.part3.rar.html
http://uploadrocket.net/l9bis4l6iq9x/Unexpected.2015.1080p.BluRay.x264.DD5.1-RARBG.part4.rar.html
http://uploadrocket.net/xcres5jzdpuk/Unexpected.2015.1080p.BluRay.x264.DD5.1-RARBG.part5.rar.html
http://uploadrocket.net/0digh5dgpel5/Unexpected.2015.1080p.BluRay.x264.DD5.1-RARBG.part6.rar.html
http://uploadrocket.net/1lnybcmhpsq2/Unexpected.2015.1080p.BluRay.x264.DD5.1-RARBG.part7.rar.html
http://uploadrocket.net/t6edlv0ezt0g/Unexpected.2015.1080p.BluRay.x264.DD5.1-RARBG.part8.rar.html

Kod:
http://rapidgator.net/file/28dbeaaca3386810fc326b1ac5e3c93b/Unexpected.2015.1080p.BluRay.x264.DD5.1-RARBG.part2.rar.html
http://rapidgator.net/file/2c0c152c7657d75d26c96be675eaf389/Unexpected.2015.1080p.BluRay.x264.DD5.1-RARBG.part5.rar.html
http://rapidgator.net/file/46d312817a027f8f4b48d0a1e2e5f0fc/Unexpected.2015.1080p.BluRay.x264.DD5.1-RARBG.part6.rar.html
http://rapidgator.net/file/520b6047e5bb71ea1246d04b3b2d5a81/Unexpected.2015.1080p.BluRay.x264.DD5.1-RARBG.part1.rar.html
http://rapidgator.net/file/4918157c8cfd42db81007ca27efec3fb/Unexpected.2015.1080p.BluRay.x264.DD5.1-RARBG.part3.rar.html
http://rapidgator.net/file/2596f03e86535f00c6465ab3f5aac92e/Unexpected.2015.1080p.BluRay.x264.DD5.1-RARBG.part7.rar.html
http://rapidgator.net/file/a2d7461265cc1cee0782d0e7c11209fc/Unexpected.2015.1080p.BluRay.x264.DD5.1-RARBG.part4.rar.html
http://rapidgator.net/file/b4a300f68faa26313be57c6923561fbd/Unexpected.2015.1080p.BluRay.x264.DD5.1-RARBG.part8.rar.html

Kod:
http://imdb.com/title/tt4145304/

Unexpected_2015_1080p_Blu_Ray_x264_DD5_1_RARBG_s.jpg

Kod:
Video
ID                                       : 1
Format                                   : AVC
Format/Info                              : Advanced Video Codec
Format profile                           : High@L4.1
Format settings, CABAC                   : Yes
Format settings, ReFrames                : 4 frames
Codec ID                                 : V_MPEG4/ISO/AVC
Duration                                 : 1h 25mn
Bit rate                                 : 11.5 Mbps
Width                                    : 1 920 pixels
Height                                   : 1 080 pixels
Display aspect ratio                     : 16:9
Frame rate mode                          : Constant
Frame rate                               : 23.976 fps
Color space                              : YUV
Chroma subsampling                       : 4:2:0
Bit depth                                : 8 bits
Scan type                                : Progressive
Bits/(Pixel*Frame)                       : 0.231
Stream size                              : 6.54 GiB (94%)
Title                                    : Unexpected.2015.1080p.BluRay.x264.DD5.1-RARBG
Writing library                          : x264 core 144 r96 40bb568
Encoding settings                        : cabac=1 / ref=4 / deblock=1:-2:-2 / analyse=0x3:0x113 / me=umh / subme=7 / psy=1 / psy_rd=1.00:0.15 / mixed_ref=1 / me_range=16 / chroma_me=1 / trellis=1 / 8x8dct=1 / cqm=0 / deadzone=21,11 / fast_pskip=1 / chroma_qp_offset=-3 / threads=12 / lookahead_threads=3 / sliced_threads=0 / nr=0 / decimate=1 / interlaced=0 / bluray_compat=0 / constrained_intra=0 / bframes=3 / b_pyramid=2 / b_adapt=2 / b_bias=0 / direct=3 / weightb=1 / open_gop=0 / weightp=2 / keyint=250 / keyint_min=25 / scenecut=40 / intra_refresh=0 / rc_lookahead=50 / rc=abr / mbtree=1 / bitrate=11500 / ratetol=1.0 / qcomp=0.60 / qpmin=0 / qpmax=69 / qpstep=4 / vbv_maxrate=31250 / vbv_bufsize=31250 / nal_hrd=none / filler=0 / ip_ratio=1.40 / aq=1:1.00
Language                                 : English
Default                                  : Yes
Forced                                   : No

Audio
ID                                       : 2
Format                                   : AC-3
Format/Info                              : Audio Coding 3
Mode extension                           : CM (complete main)
Format settings, Endianness              : Big
Codec ID                                 : A_AC3
Duration                                 : 1h 25mn
Bit rate mode                            : Constant
Bit rate                                 : 448 Kbps
Channel(s)                               : 6 channels
Channel positions                        : Front: L C R, Side: L R, LFE
Sampling rate                            : 48.0 KHz
Compression mode                         : Lossy
Stream size                              : 273 MiB (4%)
Title                                    : Unexpected.2015.1080p.BluRay.x264.DD5.1-RARBG
Language                                 : English
Default                                  : Yes
Forced                                   : No

Text #1
ID                                       : 3
Format                                   : UTF-8
Codec ID                                 : S_TEXT/UTF8
Codec ID/Info                            : UTF-8 Plain Text
Language                                 : English
Default                                  : Yes
Forced                                   : No

Text #2
ID                                       : 4
Format                                   : UTF-8
Codec ID                                 : S_TEXT/UTF8
Codec ID/Info                            : UTF-8 Plain Text
Title                                    : SDH
Language                                 : English
Default                                  : No
Forced                                   : No
Ara
Cevapla


Konu ile Alakalı Benzer Konular
Konular Yazar Yorumlar Okunma Son Yorum
  Ben Hur | 2016 | 720p | BluRay | x264 | GECKOS breath-10 0 41 27-11-2016, Saat: 12:44
Son Yorum: breath-10
  The Whole Truth | 2016 | 720p | BluRay | x264 breath-10 0 173 27-11-2016, Saat: 12:34
Son Yorum: breath-10
  Jason Bourne | 2016 | 720p | BluRay | x264 | SPARKS breath-10 0 37 18-11-2016, Saat: 19:47
Son Yorum: breath-10
  Suicide Squad | 2016 | 1080p | WEB-DL | H264 | AC3 | EVO breath-10 0 38 15-11-2016, Saat: 23:34
Son Yorum: breath-10
  Mechanic Resurrection | 2016 | 720p | BluRay | x264 | DD5 1 | HDC breath-10 0 56 10-11-2016, Saat: 21:10
Son Yorum: breath-10

Hızlı Menü:

Hakkımızda
Sitemizde yer alan tüm videolar, filmler kaynak kodları ile Turbobit, Uploaded, Ul.to v.b. dosya paylaşım sitelerinden alınmaktadır. Telif hakları sorumluluğu bu sitelere aittir. Dosyaların hiç biri sunucularımızda bulunmamaktadır. Yine de hak sahiplerinin talep etmesi halinde istenen içerik siteden kaldırılabilir. İletişim adresi sitemizde mevcuttur. İletişim / Contact (Reklam, Dmca, Telif vs):okaan9999@gmail.com
Forum