DivxDepo.NET - Film indir - Dizi indir - Oyun indir
Hoşgeldin, Ziyaretçi: Üye Ol
DivxDepo.Net'e Hoşgeldiniz :)
Umarım Aradığınızı Bulursunuz.İsteklerinizi İletişim Sayfamızdan bildirebilirsiniz.

DivxDepo.Net Önerdiklerimiz
Konuyu Oyla:
  • Toplam: 0 Oy - Ortalama: 0
  • 1
  • 2
  • 3
  • 4
  • 5
Trouble With The Curve (2012) 1080p BluRay x264 DTS-FGT Konuyu Okuyanlar: 1 Ziyaretçi
#1
Trouble_With_The_Curve_2012_1080p_Blu_Ray_x264_DT.png

Trouble.With.The.Curve.2012.1080p.BluRay.x264.DTS-FGT

Kod:
http://uploaded.net/file/royo9w56/Trouble.With.The.Curve.2012.1080p.BluRay.x264.DTS-FGT.part08.rar
http://uploaded.net/file/b8kij5jm/Trouble.With.The.Curve.2012.1080p.BluRay.x264.DTS-FGT.part01.rar
http://uploaded.net/file/hdiy9jwr/Trouble.With.The.Curve.2012.1080p.BluRay.x264.DTS-FGT.part03.rar
http://uploaded.net/file/nj1mbojj/Trouble.With.The.Curve.2012.1080p.BluRay.x264.DTS-FGT.part02.rar
http://uploaded.net/file/nv5l4os4/Trouble.With.The.Curve.2012.1080p.BluRay.x264.DTS-FGT.part07.rar
http://uploaded.net/file/bgcurdgh/Trouble.With.The.Curve.2012.1080p.BluRay.x264.DTS-FGT.part04.rar
http://uploaded.net/file/4mx7h3s1/Trouble.With.The.Curve.2012.1080p.BluRay.x264.DTS-FGT.part05.rar
http://uploaded.net/file/nafv886l/Trouble.With.The.Curve.2012.1080p.BluRay.x264.DTS-FGT.part06.rar
http://uploaded.net/file/48w8iaft/Trouble.With.The.Curve.2012.1080p.BluRay.x264.DTS-FGT.part09.rar

Kod:
http://uploadrocket.net/vgw8r94mi57q/Trouble.With.The.Curve.2012.1080p.BluRay.x264.DTS-FGT.part01.rar.html
http://uploadrocket.net/gcfqijarw0rc/Trouble.With.The.Curve.2012.1080p.BluRay.x264.DTS-FGT.part02.rar.html
http://uploadrocket.net/xz6re77cv01u/Trouble.With.The.Curve.2012.1080p.BluRay.x264.DTS-FGT.part03.rar.html
http://uploadrocket.net/hd399hh2qv8n/Trouble.With.The.Curve.2012.1080p.BluRay.x264.DTS-FGT.part04.rar.html
http://uploadrocket.net/9veeiw6zeypo/Trouble.With.The.Curve.2012.1080p.BluRay.x264.DTS-FGT.part05.rar.html
http://uploadrocket.net/u4j3yxntwclq/Trouble.With.The.Curve.2012.1080p.BluRay.x264.DTS-FGT.part06.rar.html
http://uploadrocket.net/yppz4hjnmo5r/Trouble.With.The.Curve.2012.1080p.BluRay.x264.DTS-FGT.part07.rar.html
http://uploadrocket.net/wswezhthbwvw/Trouble.With.The.Curve.2012.1080p.BluRay.x264.DTS-FGT.part08.rar.html
http://uploadrocket.net/lr991ytt39wf/Trouble.With.The.Curve.2012.1080p.BluRay.x264.DTS-FGT.part09.rar.html

Kod:
http://imdb.com/title/tt2083383/

42968512273014444486_thumb.png
81314484456168661596_thumb.png
38064200794140680201_thumb.png
75842108074873319461_thumb.png
88677239802973615011_thumb.png

Kod:
Video
ID                                       : 1
Format                                   : AVC
Format/Info                              : Advanced Video Codec
Format profile                           : High@L4.1
Format settings, CABAC                   : Yes
Format settings, ReFrames                : 4 frames
Codec ID                                 : V_MPEG4/ISO/AVC
Duration                                 : 1h 51mn
Bit rate                                 : 9 250 Kbps
Width                                    : 1 920 pixels
Height                                   : 800 pixels
Display aspect ratio                     : 2.40:1
Frame rate mode                          : Constant
Frame rate                               : 23.976 fps
Color space                              : YUV
Chroma subsampling                       : 4:2:0
Bit depth                                : 8 bits
Scan type                                : Progressive
Bits/(Pixel*Frame)                       : 0.251
Stream size                              : 7.02 GiB (84%)
Writing library                          : x264 core 129 r2230 1cffe9f
Encoding settings                        : cabac=1 / ref=1 / deblock=1:0:0 / analyse=0x3:0x113 / me=hex / subme=4 / psy=1 / psy_rd=1.00:0.00 / mixed_ref=0 / me_range=16 / chroma_me=1 / trellis=0 / 8x8dct=1 / cqm=0 / deadzone=21,11 / fast_pskip=1 / chroma_qp_offset=0 / threads=6 / lookahead_threads=1 / sliced_threads=0 / nr=0 / decimate=1 / interlaced=0 / bluray_compat=0 / constrained_intra=0 / bframes=3 / b_pyramid=2 / b_adapt=1 / b_bias=0 / direct=3 / weightb=1 / open_gop=0 / weightp=2 / keyint=240 / keyint_min=23 / scenecut=40 / intra_refresh=0 / rc_lookahead=40 / rc=2pass / mbtree=1 / bitrate=9250 / ratetol=1.0 / qcomp=0.50 / qpmin=10 / qpmax=51 / qpstep=4 / cplxblur=20.0 / qblur=0.5 / vbv_maxrate=24000 / vbv_bufsize=24000 / nal_hrd=none / ip_ratio=1.10 / aq=1:1.00
Language                                 : English
Default                                  : Yes
Forced                                   : No

Audio
ID                                       : 2
Format                                   : DTS
Format/Info                              : Digital Theater Systems
Mode                                     : 16
Format settings, Endianness              : Big
Codec ID                                 : A_DTS
Duration                                 : 1h 51mn
Bit rate mode                            : Constant
Bit rate                                 : 1 509 Kbps
Channel(s)                               : 6 channels
Channel positions                        : Front: L C R, Side: L R, LFE
Sampling rate                            : 48.0 KHz
Bit depth                                : 24 bits
Compression mode                         : Lossy
Stream size                              : 1.17 GiB (14%)
Language                                 : English
Default                                  : Yes
Forced                                   : No
Ara
Cevapla


Konu ile Alakalı Benzer Konular
Konular Yazar Yorumlar Okunma Son Yorum
  Ben Hur | 2016 | 720p | BluRay | x264 | GECKOS breath-10 0 59 27-11-2016, Saat: 12:44
Son Yorum: breath-10
  The Whole Truth | 2016 | 720p | BluRay | x264 breath-10 0 179 27-11-2016, Saat: 12:34
Son Yorum: breath-10
  Jason Bourne | 2016 | 720p | BluRay | x264 | SPARKS breath-10 0 46 18-11-2016, Saat: 19:47
Son Yorum: breath-10
  Suicide Squad | 2016 | 1080p | WEB-DL | H264 | AC3 | EVO breath-10 0 45 15-11-2016, Saat: 23:34
Son Yorum: breath-10
  Mechanic Resurrection | 2016 | 720p | BluRay | x264 | DD5 1 | HDC breath-10 0 63 10-11-2016, Saat: 21:10
Son Yorum: breath-10

Hızlı Menü:

Hakkımızda
Sitemizde yer alan tüm videolar, filmler kaynak kodları ile Turbobit, Uploaded, Ul.to v.b. dosya paylaşım sitelerinden alınmaktadır. Telif hakları sorumluluğu bu sitelere aittir. Dosyaların hiç biri sunucularımızda bulunmamaktadır. Yine de hak sahiplerinin talep etmesi halinde istenen içerik siteden kaldırılabilir. İletişim adresi sitemizde mevcuttur. İletişim / Contact (Reklam, Dmca, Telif vs):okaan9999@gmail.com
Forum