DivxDepo.NET - Film indir - Dizi indir - Oyun indir
Hoşgeldin, Ziyaretçi: Üye Ol
DivxDepo.Net'e Hoşgeldiniz :)
Umarım Aradığınızı Bulursunuz.İsteklerinizi İletişim Sayfamızdan bildirebilirsiniz.

DivxDepo.Net Önerdiklerimiz
Konuyu Oyla:
  • Toplam: 0 Oy - Ortalama: 0
  • 1
  • 2
  • 3
  • 4
  • 5
Tropic Thunder (2008) UNRATED DC 1080p BluRay x264 DTS-FGT Konuyu Okuyanlar: 1 Ziyaretçi
#1
Tropic_Thunder_2008_UNRATED_DC_1080p_Blu_Ray_x264.png

Tropic.Thunder.2008.UNRATED.DC.1080p.BluRay.x264.DTS-FGT


Kod:
http://uploaded.net/file/iegh1iip/Tropic.Thunder.2008.UNRATED.DC.1080p.BluRay.x264.DTS-FGT.part2.rar
http://uploaded.net/file/uper41ug/Tropic.Thunder.2008.UNRATED.DC.1080p.BluRay.x264.DTS-FGT.part1.rar
http://uploaded.net/file/fkiij4e0/Tropic.Thunder.2008.UNRATED.DC.1080p.BluRay.x264.DTS-FGT.part4.rar
http://uploaded.net/file/15cvoqqy/Tropic.Thunder.2008.UNRATED.DC.1080p.BluRay.x264.DTS-FGT.part3.rar
http://uploaded.net/file/iawuv848/Tropic.Thunder.2008.UNRATED.DC.1080p.BluRay.x264.DTS-FGT.part5.rar


Kod:
http://rapidgator.net/file/3fd6e9f23de6a52876452a4f24511704/Tropic.Thunder.2008.UNRATED.DC.1080p.BluRay.x264.DTS-FGT.part1.rar.html
http://rapidgator.net/file/888f97465a79e56c3af538bcbb53fa73/Tropic.Thunder.2008.UNRATED.DC.1080p.BluRay.x264.DTS-FGT.part2.rar.html
http://rapidgator.net/file/fa39f01cb9b24aa3ea48f9b2d2beed46/Tropic.Thunder.2008.UNRATED.DC.1080p.BluRay.x264.DTS-FGT.part4.rar.html
http://rapidgator.net/file/2b38c95a8c079167ed05d842c188404e/Tropic.Thunder.2008.UNRATED.DC.1080p.BluRay.x264.DTS-FGT.part3.rar.html
http://rapidgator.net/file/6d02a6089af5abff0197c61af306f737/Tropic.Thunder.2008.UNRATED.DC.1080p.BluRay.x264.DTS-FGT.part5.rar.html


Kod:
http://imdb.com/title/tt0942385/


88202108415112664572_thumb.png
62007816739541199697_thumb.png
71819751884407861258_thumb.png
40274780757914028259_thumb.png
68963545865227632055_thumb.png
69857544570735744594_thumb.png

Kod:
Video
ID                                       : 1
Format                                   : AVC
Format/Info                              : Advanced Video Codec
Format profile                           : High@L4.1
Format settings, CABAC                   : Yes
Format settings, ReFrames                : 5 frames
Codec ID                                 : V_MPEG4/ISO/AVC
Duration                                 : 2h 1mn
Bit rate                                 : 8 750 Kbps
Width                                    : 1 920 pixels
Height                                   : 816 pixels
Display aspect ratio                     : 2.35:1
Frame rate mode                          : Constant
Frame rate                               : 23.976 fps
Color space                              : YUV
Chroma subsampling                       : 4:2:0
Bit depth                                : 8 bits
Scan type                                : Progressive
Bits/(Pixel*Frame)                       : 0.233
Stream size                              : 7.23 GiB (83%)
Writing library                          : x264 core 65 r1028M 83baa7f
Encoding settings                        : cabac=1 / ref=5 / deblock=1:-1:-1 / analyse=0x3:0x113 / me=umh / subme=7 / psy_rd=1.0:0.0 / mixed_ref=1 / me_range=16 / chroma_me=1 / trellis=2 / 8x8dct=1 / cqm=0 / deadzone=21,11 / chroma_qp_offset=-2 / threads=12 / nr=0 / decimate=1 / mbaff=0 / bframes=3 / b_pyramid=0 / b_adapt=2 / b_bias=0 / direct=3 / wpredb=1 / keyint=250 / keyint_min=25 / scenecut=40(pre) / rc=2pass / bitrate=8750 / ratetol=1.0 / qcomp=0.60 / qpmin=10 / qpmax=51 / qpstep=4 / cplxblur=20.0 / qblur=0.5 / vbv_maxrate=50000 / vbv_bufsize=50000 / ip_ratio=1.40 / pb_ratio=1.30 / aq=1:1.00
Language                                 : English
Default                                  : Yes
Forced                                   : No

Audio
ID                                       : 2
Format                                   : DTS
Format/Info                              : Digital Theater Systems
Mode                                     : 16
Format settings, Endianness              : Big
Codec ID                                 : A_DTS
Duration                                 : 2h 1mn
Bit rate mode                            : Constant
Bit rate                                 : 1 510 Kbps
Channel(s)                               : 6 channels
Channel positions                        : Front: L C R, Side: L R, LFE
Sampling rate                            : 48.0 KHz
Bit depth                                : 24 bits
Compression mode                         : Lossy
Stream size                              : 1.28 GiB (15%)
Language                                 : English
Default                                  : Yes
Forced                                   : No

Text
ID                                       : 3
Format                                   : UTF-8
Codec ID                                 : S_TEXT/UTF8
Codec ID/Info                            : UTF-8 Plain Text
Language                                 : English
Default                                  : Yes
Forced                                   : No
Ara
Cevapla


Konu ile Alakalı Benzer Konular
Konular Yazar Yorumlar Okunma Son Yorum
  Ben Hur | 2016 | 720p | BluRay | x264 | GECKOS breath-10 0 62 27-11-2016, Saat: 12:44
Son Yorum: breath-10
  The Whole Truth | 2016 | 720p | BluRay | x264 breath-10 0 182 27-11-2016, Saat: 12:34
Son Yorum: breath-10
  Jason Bourne | 2016 | 720p | BluRay | x264 | SPARKS breath-10 0 48 18-11-2016, Saat: 19:47
Son Yorum: breath-10
  Suicide Squad | 2016 | 1080p | WEB-DL | H264 | AC3 | EVO breath-10 0 51 15-11-2016, Saat: 23:34
Son Yorum: breath-10
  Mechanic Resurrection | 2016 | 720p | BluRay | x264 | DD5 1 | HDC breath-10 0 65 10-11-2016, Saat: 21:10
Son Yorum: breath-10

Hızlı Menü:

Hakkımızda
Sitemizde yer alan tüm videolar, filmler kaynak kodları ile Turbobit, Uploaded, Ul.to v.b. dosya paylaşım sitelerinden alınmaktadır. Telif hakları sorumluluğu bu sitelere aittir. Dosyaların hiç biri sunucularımızda bulunmamaktadır. Yine de hak sahiplerinin talep etmesi halinde istenen içerik siteden kaldırılabilir. İletişim adresi sitemizde mevcuttur. İletişim / Contact (Reklam, Dmca, Telif vs):okaan9999@gmail.com
Forum