DivxDepo.NET - Film indir - Dizi indir - Oyun indir
Hoşgeldin, Ziyaretçi: Üye Ol
DivxDepo.Net'e Hoşgeldiniz :)
Umarım Aradığınızı Bulursunuz.İsteklerinizi İletişim Sayfamızdan bildirebilirsiniz.

DivxDepo.Net Önerdiklerimiz
Konuyu Oyla:
  • Toplam: 0 Oy - Ortalama: 0
  • 1
  • 2
  • 3
  • 4
  • 5
Traitor (2008) 1080p BluRay x264 DD5.1-FGT Konuyu Okuyanlar: 1 Ziyaretçi
#1
Traitor_2008_1080p_Blu_Ray_x264_DD5_1_FGT.png

Traitor.2008.1080p.BluRay.x264.DD5.1-FGT

Kod:
http://uploaded.net/file/8bstfa0j/Traitor.2008.1080p.BluRay.x264.DD5.1-FGT.part01.rar
http://uploaded.net/file/mzjxccm3/Traitor.2008.1080p.BluRay.x264.DD5.1-FGT.part08.rar
http://uploaded.net/file/eu4rxh17/Traitor.2008.1080p.BluRay.x264.DD5.1-FGT.part07.rar
http://uploaded.net/file/teexp6kd/Traitor.2008.1080p.BluRay.x264.DD5.1-FGT.part10.rar
http://uploaded.net/file/yvkbgyfc/Traitor.2008.1080p.BluRay.x264.DD5.1-FGT.part02.rar
http://uploaded.net/file/h5xlvsr8/Traitor.2008.1080p.BluRay.x264.DD5.1-FGT.part03.rar
http://uploaded.net/file/zojx8d98/Traitor.2008.1080p.BluRay.x264.DD5.1-FGT.part09.rar
http://uploaded.net/file/yoa3mp8b/Traitor.2008.1080p.BluRay.x264.DD5.1-FGT.part04.rar
http://uploaded.net/file/g2xzjzc0/Traitor.2008.1080p.BluRay.x264.DD5.1-FGT.part06.rar
http://uploaded.net/file/i9cfgeq4/Traitor.2008.1080p.BluRay.x264.DD5.1-FGT.part05.rar
http://uploaded.net/file/eozzrn22/Traitor.2008.1080p.BluRay.x264.DD5.1-FGT.part11.rar

Kod:
http://uploadrocket.net/68v6hsesr4ph/Traitor.2008.1080p.BluRay.x264.DD5.1-FGT.part01.rar.html
http://uploadrocket.net/w312f52xh9y0/Traitor.2008.1080p.BluRay.x264.DD5.1-FGT.part02.rar.html
http://uploadrocket.net/8u254y5cjdyu/Traitor.2008.1080p.BluRay.x264.DD5.1-FGT.part03.rar.html
http://uploadrocket.net/ms2awxr5mdb3/Traitor.2008.1080p.BluRay.x264.DD5.1-FGT.part04.rar.html
http://uploadrocket.net/icwfnqd6jdsc/Traitor.2008.1080p.BluRay.x264.DD5.1-FGT.part05.rar.html
http://uploadrocket.net/i5arklxmxwjj/Traitor.2008.1080p.BluRay.x264.DD5.1-FGT.part06.rar.html
http://uploadrocket.net/08w6j7uxenx6/Traitor.2008.1080p.BluRay.x264.DD5.1-FGT.part07.rar.html
http://uploadrocket.net/30a6n8g5wpet/Traitor.2008.1080p.BluRay.x264.DD5.1-FGT.part08.rar.html
http://uploadrocket.net/dc4qihwcayqz/Traitor.2008.1080p.BluRay.x264.DD5.1-FGT.part09.rar.html
http://uploadrocket.net/q90iagau7dij/Traitor.2008.1080p.BluRay.x264.DD5.1-FGT.part10.rar.html
http://uploadrocket.net/917nxvros9ri/Traitor.2008.1080p.BluRay.x264.DD5.1-FGT.part11.rar.html

Kod:
http://imdb.com/title/tt0988047/

63742311082103720528_thumb.png
02699875878578035463_thumb.png
25562096126296292289_thumb.png
35143821404605873097_thumb.png
70916613927186883728_thumb.png

Kod:
Video
ID                                       : 1
Format                                   : AVC
Format/Info                              : Advanced Video Codec
Format profile                           : High@L4.1
Format settings, CABAC                   : Yes
Format settings, ReFrames                : 5 frames
Codec ID                                 : V_MPEG4/ISO/AVC
Duration                                 : 1h 54mn
Bit rate                                 : 11.6 Mbps
Width                                    : 1 920 pixels
Height                                   : 800 pixels
Display aspect ratio                     : 2.40:1
Frame rate mode                          : Constant
Frame rate                               : 23.976 fps
Color space                              : YUV
Chroma subsampling                       : 4:2:0
Bit depth                                : 8 bits
Scan type                                : Progressive
Bits/(Pixel*Frame)                       : 0.316
Stream size                              : 9.07 GiB (93%)
Writing library                          : x264 core 66 r1086M 39a2796
Encoding settings                        : cabac=1 / ref=5 / deblock=1:-3:-3 / analyse=0x3:0x113 / me=umh / subme=9 / psy_rd=1.0:0.0 / mixed_ref=1 / me_range=32 / chroma_me=1 / trellis=0 / 8x8dct=1 / cqm=2 / deadzone=6,4 / chroma_qp_offset=-2 / threads=6 / nr=0 / decimate=0 / mbaff=0 / bframes=3 / b_pyramid=1 / b_adapt=2 / b_bias=0 / direct=3 / wpredb=1 / keyint=240 / keyint_min=24 / scenecut=40(pre) / rc=2pass / bitrate=11620 / ratetol=1.0 / qcomp=0.60 / qpmin=10 / qpmax=51 / qpstep=4 / cplxblur=20.0 / qblur=0.5 / ip_ratio=1.40 / pb_ratio=1.30 / aq=1:1.00
Language                                 : English
Default                                  : Yes
Forced                                   : No

Audio
ID                                       : 2
Format                                   : AC-3
Format/Info                              : Audio Coding 3
Mode extension                           : CM (complete main)
Format settings, Endianness              : Big
Codec ID                                 : A_AC3
Duration                                 : 1h 54mn
Bit rate mode                            : Constant
Bit rate                                 : 640 Kbps
Channel(s)                               : 6 channels
Channel positions                        : Front: L C R, Side: L R, LFE
Sampling rate                            : 48.0 KHz
Compression mode                         : Lossy
Stream size                              : 522 MiB (5%)
Language                                 : English
Default                                  : Yes
Forced                                   : No

Text
ID                                       : 3
Format                                   : UTF-8
Codec ID                                 : S_TEXT/UTF8
Codec ID/Info                            : UTF-8 Plain Text
Language                                 : English
Default                                  : No
Forced                                   : No
Ara
Cevapla


Konu ile Alakalı Benzer Konular
Konular Yazar Yorumlar Okunma Son Yorum
  Ben Hur | 2016 | 720p | BluRay | x264 | GECKOS breath-10 0 45 27-11-2016, Saat: 12:44
Son Yorum: breath-10
  The Whole Truth | 2016 | 720p | BluRay | x264 breath-10 0 173 27-11-2016, Saat: 12:34
Son Yorum: breath-10
  Jason Bourne | 2016 | 720p | BluRay | x264 | SPARKS breath-10 0 37 18-11-2016, Saat: 19:47
Son Yorum: breath-10
  Suicide Squad | 2016 | 1080p | WEB-DL | H264 | AC3 | EVO breath-10 0 39 15-11-2016, Saat: 23:34
Son Yorum: breath-10
  Mechanic Resurrection | 2016 | 720p | BluRay | x264 | DD5 1 | HDC breath-10 0 56 10-11-2016, Saat: 21:10
Son Yorum: breath-10

Hızlı Menü:

Hakkımızda
Sitemizde yer alan tüm videolar, filmler kaynak kodları ile Turbobit, Uploaded, Ul.to v.b. dosya paylaşım sitelerinden alınmaktadır. Telif hakları sorumluluğu bu sitelere aittir. Dosyaların hiç biri sunucularımızda bulunmamaktadır. Yine de hak sahiplerinin talep etmesi halinde istenen içerik siteden kaldırılabilir. İletişim adresi sitemizde mevcuttur. İletişim / Contact (Reklam, Dmca, Telif vs):okaan9999@gmail.com
Forum