DivxDepo.NET - Film indir - Dizi indir - Oyun indir
Hoşgeldin, Ziyaretçi: Üye Ol
DivxDepo.Net'e Hoşgeldiniz :)
Umarım Aradığınızı Bulursunuz.İsteklerinizi İletişim Sayfamızdan bildirebilirsiniz.

DivxDepo.Net Önerdiklerimiz
Konuyu Oyla:
  • Toplam: 0 Oy - Ortalama: 0
  • 1
  • 2
  • 3
  • 4
  • 5
Throw Momma from the Train (1987) 1080p BluRay x264 DTS-FGT Konuyu Okuyanlar: 1 Ziyaretçi
#1
Throw_Momma_from_the_Train_1987_1080p_Blu_Ray_x26.png

Throw.Momma.from.the.Train.1987.1080p.BluRay.x264.DTS-FGT

Kod:
http://uploaded.net/file/1hc2vz3e/Throw.Momma.from.the.Train.1987.1080p.BluRay.x264.DTS-FGT.part01.rar
http://uploaded.net/file/y6yl0msr/Throw.Momma.from.the.Train.1987.1080p.BluRay.x264.DTS-FGT.part02.rar
http://uploaded.net/file/hghnuq5t/Throw.Momma.from.the.Train.1987.1080p.BluRay.x264.DTS-FGT.part03.rar
http://uploaded.net/file/djpcbnxl/Throw.Momma.from.the.Train.1987.1080p.BluRay.x264.DTS-FGT.part04.rar
http://uploaded.net/file/ftb77ge6/Throw.Momma.from.the.Train.1987.1080p.BluRay.x264.DTS-FGT.part11.rar
http://uploaded.net/file/qzt5229g/Throw.Momma.from.the.Train.1987.1080p.BluRay.x264.DTS-FGT.part09.rar
http://uploaded.net/file/m0y1039u/Throw.Momma.from.the.Train.1987.1080p.BluRay.x264.DTS-FGT.part05.rar
http://uploaded.net/file/xbtsdgud/Throw.Momma.from.the.Train.1987.1080p.BluRay.x264.DTS-FGT.part07.rar
http://uploaded.net/file/0srpx2ti/Throw.Momma.from.the.Train.1987.1080p.BluRay.x264.DTS-FGT.part10.rar
http://uploaded.net/file/oq2ekz90/Throw.Momma.from.the.Train.1987.1080p.BluRay.x264.DTS-FGT.part06.rar
http://uploaded.net/file/povm8wb6/Throw.Momma.from.the.Train.1987.1080p.BluRay.x264.DTS-FGT.part08.rar
http://uploaded.net/file/dj8ex9b4/Throw.Momma.from.the.Train.1987.1080p.BluRay.x264.DTS-FGT.part12.rar

Kod:
http://uploadrocket.net/mlnh6rpkujtp/Throw.Momma.from.the.Train.1987.1080p.BluRay.x264.DTS-FGT.part01.rar.html
http://uploadrocket.net/ur1fco4f8s4e/Throw.Momma.from.the.Train.1987.1080p.BluRay.x264.DTS-FGT.part02.rar.html
http://uploadrocket.net/k3iuiwugjyew/Throw.Momma.from.the.Train.1987.1080p.BluRay.x264.DTS-FGT.part03.rar.html
http://uploadrocket.net/zgu49b52oc5c/Throw.Momma.from.the.Train.1987.1080p.BluRay.x264.DTS-FGT.part04.rar.html
http://uploadrocket.net/8fto4trrdwfn/Throw.Momma.from.the.Train.1987.1080p.BluRay.x264.DTS-FGT.part05.rar.html
http://uploadrocket.net/7o8wobeefjkw/Throw.Momma.from.the.Train.1987.1080p.BluRay.x264.DTS-FGT.part06.rar.html
http://uploadrocket.net/goscbqb1ikbd/Throw.Momma.from.the.Train.1987.1080p.BluRay.x264.DTS-FGT.part07.rar.html
http://uploadrocket.net/wfa96h2qsvk6/Throw.Momma.from.the.Train.1987.1080p.BluRay.x264.DTS-FGT.part08.rar.html
http://uploadrocket.net/wlobdxx5ux7y/Throw.Momma.from.the.Train.1987.1080p.BluRay.x264.DTS-FGT.part09.rar.html
http://uploadrocket.net/gidqcb85ktbt/Throw.Momma.from.the.Train.1987.1080p.BluRay.x264.DTS-FGT.part10.rar.html
http://uploadrocket.net/w0awvpc47y7x/Throw.Momma.from.the.Train.1987.1080p.BluRay.x264.DTS-FGT.part11.rar.html
http://uploadrocket.net/da0zwjt2kiq4/Throw.Momma.from.the.Train.1987.1080p.BluRay.x264.DTS-FGT.part12.rar.html

Kod:
http://imdb.com/title/tt0094142/

15279508622665487087_thumb.png
10194916211173668772_thumb.png
77889974597397790734_thumb.png
39761746808657133724_thumb.png
50250266426966214408_thumb.png

Kod:
Video
ID                                       : 1
Format                                   : AVC
Format/Info                              : Advanced Video Codec
Format profile                           : High@L4.1
Format settings, CABAC                   : Yes
Format settings, ReFrames                : 4 frames
Codec ID                                 : V_MPEG4/ISO/AVC
Duration                                 : 1h 27mn
Bit rate                                 : 16.4 Mbps
Width                                    : 1 920 pixels
Height                                   : 1 040 pixels
Display aspect ratio                     : 1.85:1
Frame rate mode                          : Constant
Frame rate                               : 23.976 fps
Color space                              : YUV
Chroma subsampling                       : 4:2:0
Bit depth                                : 8 bits
Scan type                                : Progressive
Bits/(Pixel*Frame)                       : 0.342
Stream size                              : 10.0 GiB (90%)
Writing library                          : x264 core 122 r2184kMod 5c85e0a
Encoding settings                        : cabac=1 / ref=4 / deblock=1:-3:-3 / analyse=0x3:0x113 / me=umh / subme=11 / psy=1 / fade_compensate=0.00 / psy_rd=0.95:0.00 / mixed_ref=1 / me_range=48 / chroma_me=1 / trellis=2 / 8x8dct=1 / cqm=0 / deadzone=21,11 / fast_pskip=1 / chroma_qp_offset=-2 / threads=12 / sliced_threads=0 / nr=0 / decimate=1 / interlaced=0 / bluray_compat=0 / constrained_intra=0 / bframes=11 / b_pyramid=2 / b_adapt=2 / b_bias=0 / direct=1 / weightb=1 / open_gop=0 / weightp=2 / keyint=250 / keyint_min=23 / scenecut=40 / intra_refresh=0 / rc_lookahead=60 / rc=crf / mbtree=1 / crf=18.0000 / qcomp=0.75 / qpmin=0 / qpmax=69 / qpstep=4 / vbv_maxrate=50000 / vbv_bufsize=62500 / crf_max=0.0 / nal_hrd=none / ip_ratio=1.40 / aq=1:0.70
Language                                 : English
Default                                  : Yes
Forced                                   : No
Color range                              : Limited
Matrix coefficients                      : BT.709

Audio
ID                                       : 2
Format                                   : DTS
Format/Info                              : Digital Theater Systems
Mode                                     : 16
Format settings, Endianness              : Big
Codec ID                                 : A_DTS
Duration                                 : 1h 27mn
Bit rate mode                            : Constant
Bit rate                                 : 1 509 Kbps
Channel(s)                               : 2 channels
Channel positions                        : Front: L R
Sampling rate                            : 48.0 KHz
Bit depth                                : 24 bits
Compression mode                         : Lossy
Stream size                              : 947 MiB (8%)
Language                                 : English
Default                                  : Yes
Forced                                   : No

Text
ID                                       : 3
Format                                   : UTF-8
Codec ID                                 : S_TEXT/UTF8
Codec ID/Info                            : UTF-8 Plain Text
Language                                 : English
Default                                  : No
Forced                                   : No
Ara
Cevapla


Konu ile Alakalı Benzer Konular
Konular Yazar Yorumlar Okunma Son Yorum
  Ben Hur | 2016 | 720p | BluRay | x264 | GECKOS breath-10 0 62 27-11-2016, Saat: 12:44
Son Yorum: breath-10
  The Whole Truth | 2016 | 720p | BluRay | x264 breath-10 0 182 27-11-2016, Saat: 12:34
Son Yorum: breath-10
  Jason Bourne | 2016 | 720p | BluRay | x264 | SPARKS breath-10 0 47 18-11-2016, Saat: 19:47
Son Yorum: breath-10
  Suicide Squad | 2016 | 1080p | WEB-DL | H264 | AC3 | EVO breath-10 0 49 15-11-2016, Saat: 23:34
Son Yorum: breath-10
  Mechanic Resurrection | 2016 | 720p | BluRay | x264 | DD5 1 | HDC breath-10 0 65 10-11-2016, Saat: 21:10
Son Yorum: breath-10

Hızlı Menü:

Hakkımızda
Sitemizde yer alan tüm videolar, filmler kaynak kodları ile Turbobit, Uploaded, Ul.to v.b. dosya paylaşım sitelerinden alınmaktadır. Telif hakları sorumluluğu bu sitelere aittir. Dosyaların hiç biri sunucularımızda bulunmamaktadır. Yine de hak sahiplerinin talep etmesi halinde istenen içerik siteden kaldırılabilir. İletişim adresi sitemizde mevcuttur. İletişim / Contact (Reklam, Dmca, Telif vs):okaan9999@gmail.com
Forum