DivxDepo.NET - Film indir - Dizi indir - Oyun indir
Hoşgeldin, Ziyaretçi: Üye Ol
DivxDepo.Net'e Hoşgeldiniz :)
Umarım Aradığınızı Bulursunuz.İsteklerinizi İletişim Sayfamızdan bildirebilirsiniz.

DivxDepo.Net Önerdiklerimiz
Konuyu Oyla:
  • Toplam: 0 Oy - Ortalama: 0
  • 1
  • 2
  • 3
  • 4
  • 5
The Wolf of Wall Street (2013) 1080p BluRay X264-AMIABLE Konuyu Okuyanlar: 1 Ziyaretçi
#1
The_Wolf_of_Wall_Street_2013_1080p_Blu_Ray_X264_A.png

The.Wolf.of.Wall.Street.2013.1080p.BluRay.X264-AMIABLE

Kod:
http://uploaded.net/file/pokmlfkx/The.Wolf.of.Wall.Street.2013.1080p.BluRay.X264-AMIABLE.part09.rar
http://uploaded.net/file/eg52l24c/The.Wolf.of.Wall.Street.2013.1080p.BluRay.X264-AMIABLE.part08.rar
http://uploaded.net/file/mqsre0sa/The.Wolf.of.Wall.Street.2013.1080p.BluRay.X264-AMIABLE.part02.rar
http://uploaded.net/file/zg2m95b2/The.Wolf.of.Wall.Street.2013.1080p.BluRay.X264-AMIABLE.part03.rar
http://uploaded.net/file/fjtggpd6/The.Wolf.of.Wall.Street.2013.1080p.BluRay.X264-AMIABLE.part04.rar
http://uploaded.net/file/ntwtvp4j/The.Wolf.of.Wall.Street.2013.1080p.BluRay.X264-AMIABLE.part05.rar
http://uploaded.net/file/s19224u3/The.Wolf.of.Wall.Street.2013.1080p.BluRay.X264-AMIABLE.part12.rar
http://uploaded.net/file/p2hg21ps/The.Wolf.of.Wall.Street.2013.1080p.BluRay.X264-AMIABLE.part11.rar
http://uploaded.net/file/otnhdgk4/The.Wolf.of.Wall.Street.2013.1080p.BluRay.X264-AMIABLE.part13.rar
http://uploaded.net/file/kyt29xdz/The.Wolf.of.Wall.Street.2013.1080p.BluRay.X264-AMIABLE.part01.rar
http://uploaded.net/file/m9zzxvf8/The.Wolf.of.Wall.Street.2013.1080p.BluRay.X264-AMIABLE.part06.rar
http://uploaded.net/file/qsefu0k5/The.Wolf.of.Wall.Street.2013.1080p.BluRay.X264-AMIABLE.part07.rar
http://uploaded.net/file/otaw3qb3/The.Wolf.of.Wall.Street.2013.1080p.BluRay.X264-AMIABLE.part10.rar

Kod:
http://uploadrocket.net/68g24h5mjsmv/The.Wolf.of.Wall.Street.2013.1080p.BluRay.X264-AMIABLE.part01.rar.html
http://uploadrocket.net/fze6579lxgpo/The.Wolf.of.Wall.Street.2013.1080p.BluRay.X264-AMIABLE.part02.rar.html
http://uploadrocket.net/6jzwmzb5rzvu/The.Wolf.of.Wall.Street.2013.1080p.BluRay.X264-AMIABLE.part03.rar.html
http://uploadrocket.net/xa19h6tvpy6x/The.Wolf.of.Wall.Street.2013.1080p.BluRay.X264-AMIABLE.part04.rar.html
http://uploadrocket.net/u8l06i6nuuge/The.Wolf.of.Wall.Street.2013.1080p.BluRay.X264-AMIABLE.part05.rar.html
http://uploadrocket.net/n5p3m81xjqca/The.Wolf.of.Wall.Street.2013.1080p.BluRay.X264-AMIABLE.part06.rar.html
http://uploadrocket.net/qvo7dtz6tyuc/The.Wolf.of.Wall.Street.2013.1080p.BluRay.X264-AMIABLE.part07.rar.html
http://uploadrocket.net/rvd9rigzz2bh/The.Wolf.of.Wall.Street.2013.1080p.BluRay.X264-AMIABLE.part08.rar.html
http://uploadrocket.net/f0xycpvjhq3g/The.Wolf.of.Wall.Street.2013.1080p.BluRay.X264-AMIABLE.part09.rar.html
http://uploadrocket.net/3e0dustwrz15/The.Wolf.of.Wall.Street.2013.1080p.BluRay.X264-AMIABLE.part10.rar.html
http://uploadrocket.net/npa7vd7o88uk/The.Wolf.of.Wall.Street.2013.1080p.BluRay.X264-AMIABLE.part11.rar.html
http://uploadrocket.net/ybbqnn9yy2ag/The.Wolf.of.Wall.Street.2013.1080p.BluRay.X264-AMIABLE.part12.rar.html
http://uploadrocket.net/mcqkuu9mnk63/The.Wolf.of.Wall.Street.2013.1080p.BluRay.X264-AMIABLE.part13.rar.html

Kod:
http://imdb.com/title/tt0993846/

24685253205796675863_thumb.png
67785297417972931913_thumb.png
86526181166296581298_thumb.png
76653109025402672095_thumb.png
81880948318969316549_thumb.png

Kod:
Video
ID                                       : 1
Format                                   : AVC
Format/Info                              : Advanced Video Codec
Format profile                           : High@L4.1
Format settings, CABAC                   : Yes
Format settings, ReFrames                : 5 frames
Codec ID                                 : V_MPEG4/ISO/AVC
Duration                                 : 2h 59mn
Bit rate                                 : 8 060 Kbps
Width                                    : 1 920 pixels
Height                                   : 800 pixels
Display aspect ratio                     : 2.40:1
Frame rate mode                          : Constant
Frame rate                               : 23.976 fps
Color space                              : YUV
Chroma subsampling                       : 4:2:0
Bit depth                                : 8 bits
Scan type                                : Progressive
Bits/(Pixel*Frame)                       : 0.219
Stream size                              : 9.89 GiB (82%)
Writing library                          : x264 core 142 r2389 956c8d8
Encoding settings                        : cabac=1 / ref=5 / deblock=1:-3:-3 / analyse=0x3:0x113 / me=umh / subme=8 / psy=1 / psy_rd=1.00:0.00 / mixed_ref=1 / me_range=16 / chroma_me=1 / trellis=1 / 8x8dct=1 / cqm=0 / deadzone=21,11 / fast_pskip=1 / chroma_qp_offset=-2 / threads=12 / lookahead_threads=2 / sliced_threads=0 / nr=0 / decimate=1 / interlaced=0 / bluray_compat=0 / constrained_intra=0 / bframes=3 / b_pyramid=2 / b_adapt=2 / b_bias=0 / direct=3 / weightb=1 / open_gop=0 / weightp=2 / keyint=240 / keyint_min=24 / scenecut=40 / intra_refresh=0 / rc_lookahead=50 / rc=2pass / mbtree=1 / bitrate=8060 / ratetol=1.0 / qcomp=0.60 / qpmin=0 / qpmax=69 / qpstep=4 / cplxblur=20.0 / qblur=0.5 / ip_ratio=1.40 / aq=1:1.00
Language                                 : English
Default                                  : Yes
Forced                                   : No

Audio
ID                                       : 2
Format                                   : DTS
Format/Info                              : Digital Theater Systems
Mode                                     : 16
Format settings, Endianness              : Big
Codec ID                                 : A_DTS
Duration                                 : 2h 59mn
Bit rate mode                            : Constant
Bit rate                                 : 1 509 Kbps
Channel(s)                               : 6 channels
Channel positions                        : Front: L C R, Side: L R, LFE
Sampling rate                            : 48.0 KHz
Bit depth                                : 24 bits
Compression mode                         : Lossy
Stream size                              : 1.90 GiB (16%)
Language                                 : English
Default                                  : Yes
Forced                                   : No

Text #1
ID                                       : 3
Format                                   : UTF-8
Codec ID                                 : S_TEXT/UTF8
Codec ID/Info                            : UTF-8 Plain Text
Language                                 : English
Default                                  : No
Forced                                   : No

Text #2
ID                                       : 4
Format                                   : UTF-8
Codec ID                                 : S_TEXT/UTF8
Codec ID/Info                            : UTF-8 Plain Text
Title                                    : SDH
Language                                 : English
Default                                  : No
Forced                                   : No
Ara
Cevapla


Konu ile Alakalı Benzer Konular
Konular Yazar Yorumlar Okunma Son Yorum
  Ben Hur | 2016 | 720p | BluRay | x264 | GECKOS breath-10 0 60 27-11-2016, Saat: 12:44
Son Yorum: breath-10
  The Whole Truth | 2016 | 720p | BluRay | x264 breath-10 0 179 27-11-2016, Saat: 12:34
Son Yorum: breath-10
  Jason Bourne | 2016 | 720p | BluRay | x264 | SPARKS breath-10 0 46 18-11-2016, Saat: 19:47
Son Yorum: breath-10
  Suicide Squad | 2016 | 1080p | WEB-DL | H264 | AC3 | EVO breath-10 0 45 15-11-2016, Saat: 23:34
Son Yorum: breath-10
  Mechanic Resurrection | 2016 | 720p | BluRay | x264 | DD5 1 | HDC breath-10 0 63 10-11-2016, Saat: 21:10
Son Yorum: breath-10

Hızlı Menü:

Hakkımızda
Sitemizde yer alan tüm videolar, filmler kaynak kodları ile Turbobit, Uploaded, Ul.to v.b. dosya paylaşım sitelerinden alınmaktadır. Telif hakları sorumluluğu bu sitelere aittir. Dosyaların hiç biri sunucularımızda bulunmamaktadır. Yine de hak sahiplerinin talep etmesi halinde istenen içerik siteden kaldırılabilir. İletişim adresi sitemizde mevcuttur. İletişim / Contact (Reklam, Dmca, Telif vs):okaan9999@gmail.com
Forum