DivxDepo.NET - Film indir - Dizi indir - Oyun indir
Hoşgeldin, Ziyaretçi: Üye Ol
DivxDepo.Net'e Hoşgeldiniz :)
Umarım Aradığınızı Bulursunuz.İsteklerinizi İletişim Sayfamızdan bildirebilirsiniz.

DivxDepo.Net Önerdiklerimiz
Konuyu Oyla:
  • Toplam: 0 Oy - Ortalama: 0
  • 1
  • 2
  • 3
  • 4
  • 5
The Rock (1996) 1080p BluRay x264 DTS-FGT Konuyu Okuyanlar: 1 Ziyaretçi
#1
The_Rock_1996_1080p_Blu_Ray_x264_DTS_FGT.png

The.Rock.1996.1080p.BluRay.x264.DTS-FGT

Kod:
http://uploaded.net/file/xflmeyyq/The.Rock.1996.1080p.BluRay.x264.DTS-FGT.part05.rar
http://uploaded.net/file/jy8ed2xo/The.Rock.1996.1080p.BluRay.x264.DTS-FGT.part07.rar
http://uploaded.net/file/x6gaktma/The.Rock.1996.1080p.BluRay.x264.DTS-FGT.part10.rar
http://uploaded.net/file/2vm2wmpf/The.Rock.1996.1080p.BluRay.x264.DTS-FGT.part12.rar
http://uploaded.net/file/5mn1j3rc/The.Rock.1996.1080p.BluRay.x264.DTS-FGT.part09.rar
http://uploaded.net/file/lewhbryr/The.Rock.1996.1080p.BluRay.x264.DTS-FGT.part03.rar
http://uploaded.net/file/3ospbrim/The.Rock.1996.1080p.BluRay.x264.DTS-FGT.part02.rar
http://uploaded.net/file/69hsud2m/The.Rock.1996.1080p.BluRay.x264.DTS-FGT.part04.rar
http://uploaded.net/file/78f09vte/The.Rock.1996.1080p.BluRay.x264.DTS-FGT.part08.rar
http://uploaded.net/file/v3n0fvhr/The.Rock.1996.1080p.BluRay.x264.DTS-FGT.part01.rar
http://uploaded.net/file/5duwhbqt/The.Rock.1996.1080p.BluRay.x264.DTS-FGT.part11.rar
http://uploaded.net/file/6r8fs0e0/The.Rock.1996.1080p.BluRay.x264.DTS-FGT.part06.rar
http://uploaded.net/file/3z6woh6t/The.Rock.1996.1080p.BluRay.x264.DTS-FGT.part13.rar

Kod:
http://uploadrocket.net/ubzyr506p5xi/The.Rock.1996.1080p.BluRay.x264.DTS-FGT.part01.rar.html
http://uploadrocket.net/87m5cc8z0ini/The.Rock.1996.1080p.BluRay.x264.DTS-FGT.part02.rar.html
http://uploadrocket.net/bkdr1rp6btgl/The.Rock.1996.1080p.BluRay.x264.DTS-FGT.part03.rar.html
http://uploadrocket.net/jv1wfbaail1g/The.Rock.1996.1080p.BluRay.x264.DTS-FGT.part04.rar.html
http://uploadrocket.net/t4oxhz22nneu/The.Rock.1996.1080p.BluRay.x264.DTS-FGT.part05.rar.html
http://uploadrocket.net/u69bh71wtkvj/The.Rock.1996.1080p.BluRay.x264.DTS-FGT.part06.rar.html
http://uploadrocket.net/fyg1kuk27rr3/The.Rock.1996.1080p.BluRay.x264.DTS-FGT.part07.rar.html
http://uploadrocket.net/ivt29k4djyh7/The.Rock.1996.1080p.BluRay.x264.DTS-FGT.part08.rar.html
http://uploadrocket.net/vm3lehtrzjhp/The.Rock.1996.1080p.BluRay.x264.DTS-FGT.part09.rar.html
http://uploadrocket.net/909cd6i4aoyn/The.Rock.1996.1080p.BluRay.x264.DTS-FGT.part10.rar.html
http://uploadrocket.net/3fvirlssnh08/The.Rock.1996.1080p.BluRay.x264.DTS-FGT.part11.rar.html
http://uploadrocket.net/527zcrgl184g/The.Rock.1996.1080p.BluRay.x264.DTS-FGT.part12.rar.html
http://uploadrocket.net/9msrauxssgbz/The.Rock.1996.1080p.BluRay.x264.DTS-FGT.part13.rar.html

Kod:
http://imdb.com/title/tt0117500/

88071248249891581820_thumb.png
35751588828871810512_thumb.png
38088269442645042371_thumb.png
17136375351801970371_thumb.png
79188954461725767231_thumb.png

Kod:
Video
ID                                       : 1
Format                                   : AVC
Format/Info                              : Advanced Video Codec
Format profile                           : High@L4.1
Format settings, CABAC                   : Yes
Format settings, ReFrames                : 4 frames
Codec ID                                 : V_MPEG4/ISO/AVC
Duration                                 : 2h 16mn
Bit rate                                 : 11.4 Mbps
Width                                    : 1 920 pixels
Height                                   : 816 pixels
Display aspect ratio                     : 2.35:1
Frame rate mode                          : Constant
Frame rate                               : 23.976 fps
Color space                              : YUV
Chroma subsampling                       : 4:2:0
Bit depth                                : 8 bits
Scan type                                : Progressive
Bits/(Pixel*Frame)                       : 0.304
Stream size                              : 10.6 GiB (86%)
Writing library                          : x264 core 80 r1376 3feaec2
Encoding settings                        : cabac=1 / ref=5 / deblock=1:-3:-3 / analyse=0x3:0x113 / me=esa / subme=10 / psy=1 / psy_rd=0.9:0.0 / mixed_ref=1 / me_range=24 / chroma_me=1 / trellis=2 / 8x8dct=1 / cqm=0 / deadzone=21,11 / fast_pskip=0 / chroma_qp_offset=-2 / threads=6 / sliced_threads=0 / nr=0 / decimate=0 / mbaff=0 / constrained_intra=0 / bframes=5 / b_pyramid=1 / b_adapt=2 / b_bias=0 / direct=1 / wpredb=1 / wpredp=2 / keyint=250 / keyint_min=25 / scenecut=40 / rc_lookahead=40 / rc=2pass / mbtree=1 / bitrate=11410 / ratetol=1.0 / qcomp=0.60 / qpmin=10 / qpmax=51 / qpstep=4 / cplxblur=20.0 / qblur=0.5 / ip_ratio=1.40 / aq=1:0.70
Language                                 : English
Default                                  : Yes
Forced                                   : No

Audio
ID                                       : 2
Format                                   : DTS
Format/Info                              : Digital Theater Systems
Mode                                     : 16
Format settings, Endianness              : Big
Codec ID                                 : A_DTS
Duration                                 : 2h 16mn
Bit rate mode                            : Constant
Bit rate                                 : 1 510 Kbps
Channel(s)                               : 6 channels
Channel positions                        : Front: L C R, Side: L R, LFE
Sampling rate                            : 48.0 KHz
Bit depth                                : 16 bits
Compression mode                         : Lossy
Stream size                              : 1.44 GiB (12%)
Language                                 : English
Default                                  : Yes
Forced                                   : No

Text #1
ID                                       : 3
Format                                   : ASS
Codec ID                                 : S_TEXT/ASS
Codec ID/Info                            : Advanced Sub Station Alpha
Compression mode                         : Lossless
Language                                 : Czech
Default                                  : Yes
Forced                                   : No

Text #2
ID                                       : 4
Format                                   : ASS
Codec ID                                 : S_TEXT/ASS
Codec ID/Info                            : Advanced Sub Station Alpha
Compression mode                         : Lossless
Language                                 : English
Default                                  : No
Forced                                   : No

Text #3
ID                                       : 5
Format                                   : ASS
Codec ID                                 : S_TEXT/ASS
Codec ID/Info                            : Advanced Sub Station Alpha
Compression mode                         : Lossless
Language                                 : French
Default                                  : No
Forced                                   : No

Text #4
ID                                       : 6
Format                                   : ASS
Codec ID                                 : S_TEXT/ASS
Codec ID/Info                            : Advanced Sub Station Alpha
Compression mode                         : Lossless
Language                                 : German
Default                                  : No
Forced                                   : No

Text #5
ID                                       : 7
Format                                   : ASS
Codec ID                                 : S_TEXT/ASS
Codec ID/Info                            : Advanced Sub Station Alpha
Compression mode                         : Lossless
Language                                 : Hungarian
Default                                  : No
Forced                                   : No

Text #6
ID                                       : 8
Format                                   : ASS
Codec ID                                 : S_TEXT/ASS
Codec ID/Info                            : Advanced Sub Station Alpha
Compression mode                         : Lossless
Language                                 : Norwegian
Default                                  : No
Forced                                   : No

Text #7
ID                                       : 9
Format                                   : ASS
Codec ID                                 : S_TEXT/ASS
Codec ID/Info                            : Advanced Sub Station Alpha
Compression mode                         : Lossless
Language                                 : Spanish
Default                                  : No
Forced                                   : No

Text #8
ID                                       : 10
Format                                   : ASS
Codec ID                                 : S_TEXT/ASS
Codec ID/Info                            : Advanced Sub Station Alpha
Compression mode                         : Lossless
Language                                 : Swedish
Default                                  : No
Forced                                   : No
Ara
Cevapla


Konu ile Alakalı Benzer Konular
Konular Yazar Yorumlar Okunma Son Yorum
  Ben Hur | 2016 | 720p | BluRay | x264 | GECKOS breath-10 0 45 27-11-2016, Saat: 12:44
Son Yorum: breath-10
  The Whole Truth | 2016 | 720p | BluRay | x264 breath-10 0 173 27-11-2016, Saat: 12:34
Son Yorum: breath-10
  Jason Bourne | 2016 | 720p | BluRay | x264 | SPARKS breath-10 0 37 18-11-2016, Saat: 19:47
Son Yorum: breath-10
  Suicide Squad | 2016 | 1080p | WEB-DL | H264 | AC3 | EVO breath-10 0 39 15-11-2016, Saat: 23:34
Son Yorum: breath-10
  Mechanic Resurrection | 2016 | 720p | BluRay | x264 | DD5 1 | HDC breath-10 0 56 10-11-2016, Saat: 21:10
Son Yorum: breath-10

Hızlı Menü:

Hakkımızda
Sitemizde yer alan tüm videolar, filmler kaynak kodları ile Turbobit, Uploaded, Ul.to v.b. dosya paylaşım sitelerinden alınmaktadır. Telif hakları sorumluluğu bu sitelere aittir. Dosyaların hiç biri sunucularımızda bulunmamaktadır. Yine de hak sahiplerinin talep etmesi halinde istenen içerik siteden kaldırılabilir. İletişim adresi sitemizde mevcuttur. İletişim / Contact (Reklam, Dmca, Telif vs):okaan9999@gmail.com
Forum