DivxDepo.NET - Film indir - Dizi indir - Oyun indir
Hoşgeldin, Ziyaretçi: Üye Ol
DivxDepo.Net'e Hoşgeldiniz :)
Umarım Aradığınızı Bulursunuz.İsteklerinizi İletişim Sayfamızdan bildirebilirsiniz.

DivxDepo.Net Önerdiklerimiz
Konuyu Oyla:
  • Toplam: 0 Oy - Ortalama: 0
  • 1
  • 2
  • 3
  • 4
  • 5
The Rebound (2009) 1080p BluRay x264 DTS-FGT Konuyu Okuyanlar: 1 Ziyaretçi
#1
The_Rebound_2009_1080p_Blu_Ray_x264_DTS_FGT.png

The.Rebound.2009.1080p.BluRay.x264.DTS-FGT

Kod:
http://uploaded.net/file/9fk353l9/The.Rebound.2009.1080p.BluRay.x264.DTS-FGT.part1.rar
http://uploaded.net/file/rgoh6vi7/The.Rebound.2009.1080p.BluRay.x264.DTS-FGT.part5.rar
http://uploaded.net/file/6vo4srrr/The.Rebound.2009.1080p.BluRay.x264.DTS-FGT.part6.rar
http://uploaded.net/file/tthsquy9/The.Rebound.2009.1080p.BluRay.x264.DTS-FGT.part3.rar
http://uploaded.net/file/o1w0h24s/The.Rebound.2009.1080p.BluRay.x264.DTS-FGT.part2.rar
http://uploaded.net/file/8wb9dqpe/The.Rebound.2009.1080p.BluRay.x264.DTS-FGT.part4.rar
http://uploaded.net/file/apa4kop3/The.Rebound.2009.1080p.BluRay.x264.DTS-FGT.part7.rar

Kod:
http://uploadrocket.net/8cp6g6pxe6o6/The.Rebound.2009.1080p.BluRay.x264.DTS-FGT.part1.rar.html
http://uploadrocket.net/jm2mtjoq7ls2/The.Rebound.2009.1080p.BluRay.x264.DTS-FGT.part2.rar.html
http://uploadrocket.net/hcygvwh2buj8/The.Rebound.2009.1080p.BluRay.x264.DTS-FGT.part3.rar.html
http://uploadrocket.net/8ai7kowgr6tv/The.Rebound.2009.1080p.BluRay.x264.DTS-FGT.part4.rar.html
http://uploadrocket.net/7sadc9sj9jjg/The.Rebound.2009.1080p.BluRay.x264.DTS-FGT.part5.rar.html
http://uploadrocket.net/ewjn3v2woh95/The.Rebound.2009.1080p.BluRay.x264.DTS-FGT.part6.rar.html
http://uploadrocket.net/eigg4710lxws/The.Rebound.2009.1080p.BluRay.x264.DTS-FGT.part7.rar.html

Kod:
http://imdb.com/title/tt1205535/

05104392952071928830_thumb.png
52012875016783906485_thumb.png
44830508257300936089_thumb.png
12111428943775615891_thumb.png
13342704977525815288_thumb.png

Kod:
Video
ID                                       : 1
Format                                   : AVC
Format/Info                              : Advanced Video Codec
Format profile                           : High@L4.1
Format settings, CABAC                   : Yes
Format settings, ReFrames                : 5 frames
Codec ID                                 : V_MPEG4/ISO/AVC
Duration                                 : 1h 34mn
Bit rate                                 : 8 014 Kbps
Width                                    : 1 920 pixels
Height                                   : 816 pixels
Display aspect ratio                     : 2.35:1
Frame rate mode                          : Constant
Frame rate                               : 23.976 fps
Color space                              : YUV
Chroma subsampling                       : 4:2:0
Bit depth                                : 8 bits
Scan type                                : Progressive
Bits/(Pixel*Frame)                       : 0.213
Stream size                              : 5.18 GiB (82%)
Writing library                          : x264 core 104 r1698 c41b8f0
Encoding settings                        : cabac=1 / ref=5 / deblock=1:-3:-3 / analyse=0x3:0x113 / me=umh / subme=10 / psy=1 / psy_rd=1.00:0.00 / mixed_ref=1 / me_range=32 / chroma_me=1 / trellis=2 / 8x8dct=1 / cqm=0 / deadzone=21,11 / fast_pskip=0 / chroma_qp_offset=-2 / threads=6 / sliced_threads=0 / nr=0 / decimate=0 / interlaced=0 / constrained_intra=0 / bframes=10 / b_pyramid=2 / b_adapt=2 / b_bias=0 / direct=3 / weightb=1 / open_gop=0 / weightp=2 / keyint=250 / keyint_min=23 / scenecut=40 / intra_refresh=0 / rc=2pass / mbtree=0 / bitrate=8014 / ratetol=1.0 / qcomp=0.60 / qpmin=10 / qpmax=51 / qpstep=4 / cplxblur=20.0 / qblur=0.5 / ip_ratio=1.40 / pb_ratio=1.30 / aq=1:0.50
Language                                 : English
Default                                  : Yes
Forced                                   : No

Audio
ID                                       : 2
Format                                   : DTS
Format/Info                              : Digital Theater Systems
Mode                                     : 16
Format settings, Endianness              : Big
Codec ID                                 : A_DTS
Duration                                 : 1h 34mn
Bit rate mode                            : Constant
Bit rate                                 : 1 509 Kbps
Channel(s)                               : 6 channels
Channel positions                        : Front: L C R, Side: L R, LFE
Sampling rate                            : 48.0 KHz
Bit depth                                : 24 bits
Compression mode                         : Lossy
Stream size                              : 1 023 MiB (16%)
Language                                 : English
Default                                  : Yes
Forced                                   : No

Text
ID                                       : 3
Format                                   : UTF-8
Codec ID                                 : S_TEXT/UTF8
Codec ID/Info                            : UTF-8 Plain Text
Language                                 : English
Default                                  : No
Forced                                   : No
Ara
Cevapla


Konu ile Alakalı Benzer Konular
Konular Yazar Yorumlar Okunma Son Yorum
  Ben Hur | 2016 | 720p | BluRay | x264 | GECKOS breath-10 0 41 27-11-2016, Saat: 12:44
Son Yorum: breath-10
  The Whole Truth | 2016 | 720p | BluRay | x264 breath-10 0 173 27-11-2016, Saat: 12:34
Son Yorum: breath-10
  Jason Bourne | 2016 | 720p | BluRay | x264 | SPARKS breath-10 0 37 18-11-2016, Saat: 19:47
Son Yorum: breath-10
  Suicide Squad | 2016 | 1080p | WEB-DL | H264 | AC3 | EVO breath-10 0 38 15-11-2016, Saat: 23:34
Son Yorum: breath-10
  Mechanic Resurrection | 2016 | 720p | BluRay | x264 | DD5 1 | HDC breath-10 0 56 10-11-2016, Saat: 21:10
Son Yorum: breath-10

Hızlı Menü:

Hakkımızda
Sitemizde yer alan tüm videolar, filmler kaynak kodları ile Turbobit, Uploaded, Ul.to v.b. dosya paylaşım sitelerinden alınmaktadır. Telif hakları sorumluluğu bu sitelere aittir. Dosyaların hiç biri sunucularımızda bulunmamaktadır. Yine de hak sahiplerinin talep etmesi halinde istenen içerik siteden kaldırılabilir. İletişim adresi sitemizde mevcuttur. İletişim / Contact (Reklam, Dmca, Telif vs):okaan9999@gmail.com
Forum