DivxDepo.NET - Film indir - Dizi indir - Oyun indir
Hoşgeldin, Ziyaretçi: Üye Ol
DivxDepo.Net'e Hoşgeldiniz :)
Umarım Aradığınızı Bulursunuz.İsteklerinizi İletişim Sayfamızdan bildirebilirsiniz.

DivxDepo.Net Önerdiklerimiz
Konuyu Oyla:
  • Toplam: 0 Oy - Ortalama: 0
  • 1
  • 2
  • 3
  • 4
  • 5
The Marrying Man (1991) 1080p BluRay x264 DD5.1-FGT Konuyu Okuyanlar: 1 Ziyaretçi
#1
The_Marrying_Man_1991_1080p_Blu_Ray_x264_DD5_1_FG.png

The.Marrying.Man.1991.1080p.BluRay.x264.DD5.1-FGT

Kod:
http://uploaded.net/file/bub5ghbj/The.Marrying.Man.1991.1080p.BluRay.x264.DD5.1-FGT.part11.rar
http://uploaded.net/file/n089fez4/The.Marrying.Man.1991.1080p.BluRay.x264.DD5.1-FGT.part09.rar
http://uploaded.net/file/y3sj5ine/The.Marrying.Man.1991.1080p.BluRay.x264.DD5.1-FGT.part02.rar
http://uploaded.net/file/p1xvsgpi/The.Marrying.Man.1991.1080p.BluRay.x264.DD5.1-FGT.part06.rar
http://uploaded.net/file/pyjtff6s/The.Marrying.Man.1991.1080p.BluRay.x264.DD5.1-FGT.part08.rar
http://uploaded.net/file/ecsn6otw/The.Marrying.Man.1991.1080p.BluRay.x264.DD5.1-FGT.part03.rar
http://uploaded.net/file/8mofu86y/The.Marrying.Man.1991.1080p.BluRay.x264.DD5.1-FGT.part05.rar
http://uploaded.net/file/rg49oqej/The.Marrying.Man.1991.1080p.BluRay.x264.DD5.1-FGT.part07.rar
http://uploaded.net/file/6v9ng83q/The.Marrying.Man.1991.1080p.BluRay.x264.DD5.1-FGT.part01.rar
http://uploaded.net/file/54q09l8b/The.Marrying.Man.1991.1080p.BluRay.x264.DD5.1-FGT.part04.rar
http://uploaded.net/file/1a3v7oqa/The.Marrying.Man.1991.1080p.BluRay.x264.DD5.1-FGT.part10.rar
http://uploaded.net/file/i3ouo8yn/The.Marrying.Man.1991.1080p.BluRay.x264.DD5.1-FGT.part12.rar

Kod:
http://uploadrocket.net/fslxx61arxoy/The.Marrying.Man.1991.1080p.BluRay.x264.DD5.1-FGT.part01.rar.html
http://uploadrocket.net/byifvr8yl0zd/The.Marrying.Man.1991.1080p.BluRay.x264.DD5.1-FGT.part02.rar.html
http://uploadrocket.net/t2q627vd08zx/The.Marrying.Man.1991.1080p.BluRay.x264.DD5.1-FGT.part03.rar.html
http://uploadrocket.net/ee6xipmgauew/The.Marrying.Man.1991.1080p.BluRay.x264.DD5.1-FGT.part04.rar.html
http://uploadrocket.net/4lm7kjbhs7hq/The.Marrying.Man.1991.1080p.BluRay.x264.DD5.1-FGT.part05.rar.html
http://uploadrocket.net/jf1m34vxpab8/The.Marrying.Man.1991.1080p.BluRay.x264.DD5.1-FGT.part06.rar.html
http://uploadrocket.net/vb9hvlo8xzji/The.Marrying.Man.1991.1080p.BluRay.x264.DD5.1-FGT.part07.rar.html
http://uploadrocket.net/97355tecc8vg/The.Marrying.Man.1991.1080p.BluRay.x264.DD5.1-FGT.part08.rar.html
http://uploadrocket.net/rlgyhdbgn5j4/The.Marrying.Man.1991.1080p.BluRay.x264.DD5.1-FGT.part09.rar.html
http://uploadrocket.net/k59c4apfwgz4/The.Marrying.Man.1991.1080p.BluRay.x264.DD5.1-FGT.part10.rar.html
http://uploadrocket.net/x7b3wjk388fy/The.Marrying.Man.1991.1080p.BluRay.x264.DD5.1-FGT.part11.rar.html
http://uploadrocket.net/0zmz82xcvvtt/The.Marrying.Man.1991.1080p.BluRay.x264.DD5.1-FGT.part12.rar.html

Kod:
http://imdb.com/title/tt0102411/

85704818551206359141_thumb.png
53411797987263121846_thumb.png
09487421823148878172_thumb.png
96651079305502472817_thumb.png
33855589089438963015_thumb.png

Kod:
Video
ID                                       : 1
Format                                   : AVC
Format/Info                              : Advanced Video Codec
Format profile                           : High@L4.1
Format settings, CABAC                   : Yes
Format settings, ReFrames                : 4 frames
Codec ID                                 : V_MPEG4/ISO/AVC
Duration                                 : 1h 56mn
Bit rate                                 : 12.9 Mbps
Width                                    : 1 920 pixels
Height                                   : 1 080 pixels
Display aspect ratio                     : 16:9
Frame rate mode                          : Constant
Frame rate                               : 23.976 fps
Color space                              : YUV
Chroma subsampling                       : 4:2:0
Bit depth                                : 8 bits
Scan type                                : Progressive
Bits/(Pixel*Frame)                       : 0.259
Stream size                              : 10.3 GiB (95%)
Writing library                          : x264 core 92 r1510 33d382a
Encoding settings                        : cabac=1 / ref=4 / deblock=1:-3:-3 / analyse=0x3:0x133 / me=umh / subme=10 / psy=1 / psy_rd=1.00:0.10 / mixed_ref=1 / me_range=48 / chroma_me=1 / trellis=2 / 8x8dct=1 / cqm=0 / deadzone=21,11 / fast_pskip=0 / chroma_qp_offset=-3 / threads=3 / sliced_threads=0 / nr=0 / decimate=0 / interlaced=0 / constrained_intra=0 / bframes=6 / b_pyramid=2 / b_adapt=2 / b_bias=0 / direct=3 / wpredb=1 / wpredp=2 / keyint=250 / keyint_min=23 / scenecut=40 / intra_refresh=0 / rc=2pass / mbtree=0 / bitrate=12900 / ratetol=1.0 / qcomp=0.60 / qpmin=10 / qpmax=51 / qpstep=4 / cplxblur=20.0 / qblur=0.5 / ip_ratio=1.40 / pb_ratio=1.30 / aq=1:0.50
Language                                 : English
Default                                  : Yes
Forced                                   : No

Audio
ID                                       : 2
Format                                   : AC-3
Format/Info                              : Audio Coding 3
Mode extension                           : CM (complete main)
Format settings, Endianness              : Big
Codec ID                                 : A_AC3
Duration                                 : 1h 56mn
Bit rate mode                            : Constant
Bit rate                                 : 448 Kbps
Channel(s)                               : 6 channels
Channel positions                        : Front: L C R, Side: L R, LFE
Sampling rate                            : 48.0 KHz
Compression mode                         : Lossy
Stream size                              : 373 MiB (3%)
Language                                 : English
Default                                  : Yes
Forced                                   : No
Ara
Cevapla


Konu ile Alakalı Benzer Konular
Konular Yazar Yorumlar Okunma Son Yorum
  Ben Hur | 2016 | 720p | BluRay | x264 | GECKOS breath-10 0 41 27-11-2016, Saat: 12:44
Son Yorum: breath-10
  The Whole Truth | 2016 | 720p | BluRay | x264 breath-10 0 173 27-11-2016, Saat: 12:34
Son Yorum: breath-10
  Jason Bourne | 2016 | 720p | BluRay | x264 | SPARKS breath-10 0 37 18-11-2016, Saat: 19:47
Son Yorum: breath-10
  Suicide Squad | 2016 | 1080p | WEB-DL | H264 | AC3 | EVO breath-10 0 38 15-11-2016, Saat: 23:34
Son Yorum: breath-10
  Mechanic Resurrection | 2016 | 720p | BluRay | x264 | DD5 1 | HDC breath-10 0 56 10-11-2016, Saat: 21:10
Son Yorum: breath-10

Hızlı Menü:

Hakkımızda
Sitemizde yer alan tüm videolar, filmler kaynak kodları ile Turbobit, Uploaded, Ul.to v.b. dosya paylaşım sitelerinden alınmaktadır. Telif hakları sorumluluğu bu sitelere aittir. Dosyaların hiç biri sunucularımızda bulunmamaktadır. Yine de hak sahiplerinin talep etmesi halinde istenen içerik siteden kaldırılabilir. İletişim adresi sitemizde mevcuttur. İletişim / Contact (Reklam, Dmca, Telif vs):okaan9999@gmail.com
Forum