DivxDepo.NET - Film indir - Dizi indir - Oyun indir
Hoşgeldin, Ziyaretçi: Üye Ol
DivxDepo.Net'e Hoşgeldiniz :)
Umarım Aradığınızı Bulursunuz.İsteklerinizi İletişim Sayfamızdan bildirebilirsiniz.

DivxDepo.Net Önerdiklerimiz
Konuyu Oyla:
  • Toplam: 0 Oy - Ortalama: 0
  • 1
  • 2
  • 3
  • 4
  • 5
The Liability (2012) 1080p BluRay x264 DTS-FGT Konuyu Okuyanlar: 1 Ziyaretçi
#1
The_Liability_2012_1080p_Blu_Ray_x264_DTS_FGT.png

The.Liability.2012.1080p.BluRay.x264.DTS-FGT


Kod:
http://uploaded.net/file/6u03cfdj/The.Liability.2012.1080p.BluRay.x264.DTS-FGT.part2.rar
http://uploaded.net/file/sfewe7ly/The.Liability.2012.1080p.BluRay.x264.DTS-FGT.part3.rar
http://uploaded.net/file/qkd0fz8i/The.Liability.2012.1080p.BluRay.x264.DTS-FGT.part1.rar
http://uploaded.net/file/c17o03de/The.Liability.2012.1080p.BluRay.x264.DTS-FGT.part4.rar


Kod:
http://rapidgator.net/file/5a51b84a6a6de7ed9da23538a4c43540/The.Liability.2012.1080p.BluRay.x264.DTS-FGT.part2.rar.html
http://rapidgator.net/file/d8de6cc84e24f35e7c2cbef7c18dd033/The.Liability.2012.1080p.BluRay.x264.DTS-FGT.part1.rar.html
http://rapidgator.net/file/8dcb482be215857dd1a95a958cf6cc8e/The.Liability.2012.1080p.BluRay.x264.DTS-FGT.part3.rar.html
http://rapidgator.net/file/287fff84602006186d5721cf9ede2529/The.Liability.2012.1080p.BluRay.x264.DTS-FGT.part4.rar.html


Kod:
http://imdb.com/title/tt2081437/


35392208010370681247_thumb.png
51772103730095487688_thumb.png
00500741345337932137_thumb.png
92621014194702206304_thumb.png
49887001644591071774_thumb.png
68999436054368970063_thumb.png

Kod:
Video
ID                                       : 1
Format                                   : AVC
Format/Info                              : Advanced Video Codec
Format profile                           : High@L4.1
Format settings, CABAC                   : Yes
Format settings, ReFrames                : 5 frames
Codec ID                                 : V_MPEG4/ISO/AVC
Duration                                 : 1h 26mn
Bit rate                                 : 9 403 Kbps
Width                                    : 1 920 pixels
Height                                   : 800 pixels
Display aspect ratio                     : 2.40:1
Frame rate mode                          : Constant
Frame rate                               : 24.000 fps
Color space                              : YUV
Chroma subsampling                       : 4:2:0
Bit depth                                : 8 bits
Scan type                                : Progressive
Bits/(Pixel*Frame)                       : 0.255
Stream size                              : 5.51 GiB (84%)
Writing library                          : x264 core 133 r2334 a3ac64b
Encoding settings                        : cabac=1 / ref=5 / deblock=1:0:0 / analyse=0x3:0x133 / me=umh / subme=7 / psy=1 / psy_rd=1.00:0.00 / mixed_ref=1 / me_range=16 / chroma_me=1 / trellis=1 / 8x8dct=1 / cqm=0 / deadzone=21,11 / fast_pskip=0 / chroma_qp_offset=-2 / threads=36 / lookahead_threads=6 / sliced_threads=0 / nr=0 / decimate=1 / interlaced=0 / bluray_compat=0 / constrained_intra=0 / bframes=3 / b_pyramid=2 / b_adapt=1 / b_bias=0 / direct=1 / weightb=1 / open_gop=0 / weightp=2 / keyint=250 / keyint_min=23 / scenecut=40 / intra_refresh=0 / rc_lookahead=40 / rc=2pass / mbtree=1 / bitrate=9403 / ratetol=1.0 / qcomp=0.60 / qpmin=0 / qpmax=69 / qpstep=4 / cplxblur=20.0 / qblur=0.5 / ip_ratio=1.40 / aq=1:1.00
Language                                 : English
Default                                  : Yes
Forced                                   : No

Audio
ID                                       : 2
Format                                   : DTS
Format/Info                              : Digital Theater Systems
Mode                                     : 16
Format settings, Endianness              : Big
Codec ID                                 : A_DTS
Duration                                 : 1h 26mn
Bit rate mode                            : Constant
Bit rate                                 : 1 509 Kbps
Channel(s)                               : 6 channels
Channel positions                        : Front: L C R, Side: L R, LFE
Sampling rate                            : 48.0 KHz
Bit depth                                : 24 bits
Compression mode                         : Lossy
Stream size                              : 928 MiB (14%)
Language                                 : English
Default                                  : Yes
Forced                                   : No

Menu
00:00:00.000                             : en:00:00:00.000
00:04:10.000                             : en:00:04:10.000
00:14:09.875                             : en:00:14:09.875
00:25:20.125                             : en:00:25:20.125
00:31:20.625                             : en:00:31:20.625
00:38:56.625                             : en:00:38:56.625
00:49:46.333                             : en:00:49:46.333
00:57:12.875                             : en:00:57:12.875
01:03:47.417                             : en:01:03:47.417
01:10:06.542                             : en:01:10:06.542
01:17:06.333                             : en:01:17:06.333
01:23:41.292                             : en:01:23:41.292
Ara
Cevapla


Konu ile Alakalı Benzer Konular
Konular Yazar Yorumlar Okunma Son Yorum
  Ben Hur | 2016 | 720p | BluRay | x264 | GECKOS breath-10 0 41 27-11-2016, Saat: 12:44
Son Yorum: breath-10
  The Whole Truth | 2016 | 720p | BluRay | x264 breath-10 0 173 27-11-2016, Saat: 12:34
Son Yorum: breath-10
  Jason Bourne | 2016 | 720p | BluRay | x264 | SPARKS breath-10 0 37 18-11-2016, Saat: 19:47
Son Yorum: breath-10
  Suicide Squad | 2016 | 1080p | WEB-DL | H264 | AC3 | EVO breath-10 0 38 15-11-2016, Saat: 23:34
Son Yorum: breath-10
  Mechanic Resurrection | 2016 | 720p | BluRay | x264 | DD5 1 | HDC breath-10 0 56 10-11-2016, Saat: 21:10
Son Yorum: breath-10

Hızlı Menü:

Hakkımızda
Sitemizde yer alan tüm videolar, filmler kaynak kodları ile Turbobit, Uploaded, Ul.to v.b. dosya paylaşım sitelerinden alınmaktadır. Telif hakları sorumluluğu bu sitelere aittir. Dosyaların hiç biri sunucularımızda bulunmamaktadır. Yine de hak sahiplerinin talep etmesi halinde istenen içerik siteden kaldırılabilir. İletişim adresi sitemizde mevcuttur. İletişim / Contact (Reklam, Dmca, Telif vs):okaan9999@gmail.com
Forum