DivxDepo.NET - Film indir - Dizi indir - Oyun indir
Hoşgeldin, Ziyaretçi: Üye Ol
DivxDepo.Net'e Hoşgeldiniz :)
Umarım Aradığınızı Bulursunuz.İsteklerinizi İletişim Sayfamızdan bildirebilirsiniz.

DivxDepo.Net Önerdiklerimiz
Konuyu Oyla:
  • Toplam: 0 Oy - Ortalama: 0
  • 1
  • 2
  • 3
  • 4
  • 5
The Last Legion (2007) 1080p BluRay x264 DD5.1-FGT Konuyu Okuyanlar: 1 Ziyaretçi
#1
The_Last_Legion_2007_1080p_Blu_Ray_x264_DD5_1_FGT.png

The.Last.Legion.2007.1080p.BluRay.x264.DD5.1-FGT

Kod:
http://uploaded.net/file/l5pfhnm7/The.Last.Legion.2007.1080p.BluRay.x264.DD5.1-FGT.part2.rar
http://uploaded.net/file/90te552f/The.Last.Legion.2007.1080p.BluRay.x264.DD5.1-FGT.part1.rar
http://uploaded.net/file/2oy0qvbv/The.Last.Legion.2007.1080p.BluRay.x264.DD5.1-FGT.part4.rar
http://uploaded.net/file/2ngu16y0/The.Last.Legion.2007.1080p.BluRay.x264.DD5.1-FGT.part3.rar
http://uploaded.net/file/58mix9k1/The.Last.Legion.2007.1080p.BluRay.x264.DD5.1-FGT.part7.rar
http://uploaded.net/file/rc5koqds/The.Last.Legion.2007.1080p.BluRay.x264.DD5.1-FGT.part6.rar
http://uploaded.net/file/e5prdiv0/The.Last.Legion.2007.1080p.BluRay.x264.DD5.1-FGT.part5.rar
http://uploaded.net/file/juh4i8y4/The.Last.Legion.2007.1080p.BluRay.x264.DD5.1-FGT.part8.rar

Kod:
http://uploadrocket.net/awv98bbkw97z/The.Last.Legion.2007.1080p.BluRay.x264.DD5.1-FGT.part1.rar.html
http://uploadrocket.net/m7gq8rs73lcu/The.Last.Legion.2007.1080p.BluRay.x264.DD5.1-FGT.part2.rar.html
http://uploadrocket.net/wb5r50p4uoso/The.Last.Legion.2007.1080p.BluRay.x264.DD5.1-FGT.part3.rar.html
http://uploadrocket.net/fy2inlhjmhl8/The.Last.Legion.2007.1080p.BluRay.x264.DD5.1-FGT.part4.rar.html
http://uploadrocket.net/6fylgd0s8mo9/The.Last.Legion.2007.1080p.BluRay.x264.DD5.1-FGT.part5.rar.html
http://uploadrocket.net/zbi3nfb1bvyi/The.Last.Legion.2007.1080p.BluRay.x264.DD5.1-FGT.part6.rar.html
http://uploadrocket.net/59idvmfwv29g/The.Last.Legion.2007.1080p.BluRay.x264.DD5.1-FGT.part7.rar.html
http://uploadrocket.net/93a0n50iz4xs/The.Last.Legion.2007.1080p.BluRay.x264.DD5.1-FGT.part8.rar.html

Kod:
http://imdb.com/title/tt0462396/

57474749087798698021_thumb.png
25937230318532645078_thumb.png
53537181295994184402_thumb.png
99854482803784442461_thumb.png
50202938926359652860_thumb.png

Kod:
Video
ID                                       : 1
Format                                   : AVC
Format/Info                              : Advanced Video Codec
Format profile                           : High@L4
Format settings, CABAC                   : Yes
Format settings, ReFrames                : 3 frames
Codec ID                                 : V_MPEG4/ISO/AVC
Duration                                 : 1h 41mn
Bit rate                                 : 9 643 Kbps
Width                                    : 1 920 pixels
Height                                   : 800 pixels
Display aspect ratio                     : 2.40:1
Frame rate mode                          : Constant
Frame rate                               : 23.976 fps
Color space                              : YUV
Chroma subsampling                       : 4:2:0
Bit depth                                : 8 bits
Scan type                                : Progressive
Bits/(Pixel*Frame)                       : 0.262
Stream size                              : 6.72 GiB (94%)
Writing library                          : x264 core 60 r918 91fe97b
Encoding settings                        : cabac=1 / ref=3 / deblock=1:0:0 / analyse=0x3:0x133 / me=hex / subme=6 / brdo=0 / mixed_ref=0 / me_range=16 / chroma_me=1 / trellis=1 / 8x8dct=1 / cqm=0 / deadzone=21,11 / chroma_qp_offset=0 / threads=4 / nr=0 / decimate=1 / mbaff=0 / bframes=3 / b_pyramid=1 / b_adapt=1 / b_bias=0 / direct=1 / wpredb=1 / bime=1 / keyint=240 / keyint_min=24 / scenecut=40(pre) / rc=2pass / bitrate=9643 / ratetol=1.0 / rceq='blurCplx^(1-qComp)' / qcomp=1.00 / qpmin=10 / qpmax=51 / qpstep=4 / cplxblur=20.0 / qblur=0.5 / ip_ratio=1.40 / pb_ratio=1.30 / aq=2:1.00
Language                                 : English
Default                                  : Yes
Forced                                   : No

Audio
ID                                       : 2
Format                                   : AC-3
Format/Info                              : Audio Coding 3
Mode extension                           : CM (complete main)
Format settings, Endianness              : Big
Codec ID                                 : A_AC3
Duration                                 : 1h 41mn
Bit rate mode                            : Constant
Bit rate                                 : 448 Kbps
Channel(s)                               : 6 channels
Channel positions                        : Front: L C R, Side: L R, LFE
Sampling rate                            : 48.0 KHz
Compression mode                         : Lossy
Stream size                              : 326 MiB (4%)
Language                                 : English
Default                                  : Yes
Forced                                   : No
Ara
Cevapla


Konu ile Alakalı Benzer Konular
Konular Yazar Yorumlar Okunma Son Yorum
  Ben Hur | 2016 | 720p | BluRay | x264 | GECKOS breath-10 0 29 27-11-2016, Saat: 12:44
Son Yorum: breath-10
  The Whole Truth | 2016 | 720p | BluRay | x264 breath-10 0 171 27-11-2016, Saat: 12:34
Son Yorum: breath-10
  Jason Bourne | 2016 | 720p | BluRay | x264 | SPARKS breath-10 0 33 18-11-2016, Saat: 19:47
Son Yorum: breath-10
  Suicide Squad | 2016 | 1080p | WEB-DL | H264 | AC3 | EVO breath-10 0 37 15-11-2016, Saat: 23:34
Son Yorum: breath-10
  Mechanic Resurrection | 2016 | 720p | BluRay | x264 | DD5 1 | HDC breath-10 0 54 10-11-2016, Saat: 21:10
Son Yorum: breath-10

Hızlı Menü:

Hakkımızda
Sitemizde yer alan tüm videolar, filmler kaynak kodları ile Turbobit, Uploaded, Ul.to v.b. dosya paylaşım sitelerinden alınmaktadır. Telif hakları sorumluluğu bu sitelere aittir. Dosyaların hiç biri sunucularımızda bulunmamaktadır. Yine de hak sahiplerinin talep etmesi halinde istenen içerik siteden kaldırılabilir. İletişim adresi sitemizde mevcuttur. İletişim / Contact (Reklam, Dmca, Telif vs):okaan9999@gmail.com
Forum