DivxDepo.NET - Film indir - Dizi indir - Oyun indir
Hoşgeldin, Ziyaretçi: Üye Ol
DivxDepo.Net'e Hoşgeldiniz :)
Umarım Aradığınızı Bulursunuz.İsteklerinizi İletişim Sayfamızdan bildirebilirsiniz.

DivxDepo.Net Önerdiklerimiz
Konuyu Oyla:
  • Toplam: 0 Oy - Ortalama: 0
  • 1
  • 2
  • 3
  • 4
  • 5
The Firm (1993) 1080p BluRay x264 DTS-FGT Konuyu Okuyanlar: 1 Ziyaretçi
#1
The_Firm_1993_1080p_Blu_Ray_x264_DTS_FGT.png

The.Firm.1993.1080p.BluRay.x264.DTS-FGT


Kod:
http://uploaded.net/file/3gi44ow8/The.Firm.1993.1080p.BluRay.x264.DTS-FGT.part4.rar
http://uploaded.net/file/rqz8cn2p/The.Firm.1993.1080p.BluRay.x264.DTS-FGT.part7.rar
http://uploaded.net/file/fn8gx44m/The.Firm.1993.1080p.BluRay.x264.DTS-FGT.part5.rar
http://uploaded.net/file/eze2fvis/The.Firm.1993.1080p.BluRay.x264.DTS-FGT.part6.rar
http://uploaded.net/file/s47pqywi/The.Firm.1993.1080p.BluRay.x264.DTS-FGT.part1.rar
http://uploaded.net/file/xbf1dufg/The.Firm.1993.1080p.BluRay.x264.DTS-FGT.part3.rar
http://uploaded.net/file/gweyw3v9/The.Firm.1993.1080p.BluRay.x264.DTS-FGT.part2.rar
http://uploaded.net/file/9hgzfkwv/The.Firm.1993.1080p.BluRay.x264.DTS-FGT.part8.rar


Kod:
http://rapidgator.net/file/82353097d69d6a7b92681c882f749b44/The.Firm.1993.1080p.BluRay.x264.DTS-FGT.part6.rar.html
http://rapidgator.net/file/08a0af193d87545ac2cadef0989f6811/The.Firm.1993.1080p.BluRay.x264.DTS-FGT.part5.rar.html
http://rapidgator.net/file/96ccd015767867860b34e11c19a18290/The.Firm.1993.1080p.BluRay.x264.DTS-FGT.part2.rar.html
http://rapidgator.net/file/eb933a952f4b6383fd6ebfba7cddd956/The.Firm.1993.1080p.BluRay.x264.DTS-FGT.part4.rar.html
http://rapidgator.net/file/dacc76053048855172aef514941807f9/The.Firm.1993.1080p.BluRay.x264.DTS-FGT.part1.rar.html
http://rapidgator.net/file/75685f6a49f1f4f4736caed308b6fde2/The.Firm.1993.1080p.BluRay.x264.DTS-FGT.part7.rar.html
http://rapidgator.net/file/32a418ced9b1472f98b7580d0c9c34c1/The.Firm.1993.1080p.BluRay.x264.DTS-FGT.part8.rar.html
http://rapidgator.net/file/a8642ef86573a2bf2d32ec0e3907c7f3/The.Firm.1993.1080p.BluRay.x264.DTS-FGT.part3.rar.html


Kod:
http://imdb.com/title/tt0106918/


50657199750226298625_thumb.png
64313771347983143226_thumb.png
64450282888570045749_thumb.png
28854929777450883831_thumb.png
62155985066415616890_thumb.png
86376366126796971448_thumb.png

Kod:
Video
ID                                       : 1
Format                                   : AVC
Format/Info                              : Advanced Video Codec
Format profile                           : High@L4.1
Format settings, CABAC                   : Yes
Format settings, ReFrames                : 4 frames
Codec ID                                 : V_MPEG4/ISO/AVC
Duration                                 : 2h 34mn
Bit rate                                 : 12.3 Mbps
Width                                    : 1 920 pixels
Height                                   : 1 080 pixels
Display aspect ratio                     : 16:9
Frame rate mode                          : Constant
Frame rate                               : 23.976 fps
Color space                              : YUV
Chroma subsampling                       : 4:2:0
Bit depth                                : 8 bits
Scan type                                : Progressive
Bits/(Pixel*Frame)                       : 0.248
Stream size                              : 13.0 GiB (87%)
Writing library                          : x264 core 114 r1924 08d04a4
Encoding settings                        : cabac=1 / ref=4 / deblock=1:-3:-3 / analyse=0x3:0x113 / me=umh / subme=9 / psy=1 / psy_rd=1.05:0.10 / mixed_ref=1 / me_range=32 / chroma_me=1 / trellis=2 / 8x8dct=1 / cqm=2 / deadzone=21,11 / fast_pskip=0 / chroma_qp_offset=-2 / threads=12 / sliced_threads=0 / nr=0 / decimate=1 / interlaced=0 / constrained_intra=0 / bframes=6 / b_pyramid=2 / b_adapt=2 / b_bias=0 / direct=3 / weightb=1 / open_gop=0 / weightp=2 / keyint=250 / keyint_min=23 / scenecut=40 / intra_refresh=0 / rc_lookahead=50 / rc=2pass / mbtree=1 / bitrate=12325 / ratetol=1.0 / qcomp=0.70 / qpmin=1 / qpmax=63 / qpstep=4 / cplxblur=20.0 / qblur=0.5 / vbv_maxrate=40000 / vbv_bufsize=40000 / nal_hrd=none / ip_ratio=1.40 / aq=2:0.80
Language                                 : English
Default                                  : No
Forced                                   : No

Audio
ID                                       : 2
Format                                   : DTS
Format/Info                              : Digital Theater Systems
Mode                                     : 16
Format settings, Endianness              : Big
Codec ID                                 : A_DTS
Duration                                 : 2h 34mn
Bit rate mode                            : Constant
Bit rate                                 : 1 510 Kbps
Channel(s)                               : 6 channels
Channel positions                        : Front: L C R, Side: L R, LFE
Sampling rate                            : 48.0 KHz
Bit depth                                : 24 bits
Compression mode                         : Lossy
Stream size                              : 1.63 GiB (11%)
Language                                 : English
Default                                  : Yes
Forced                                   : No

Text
ID                                       : 3
Format                                   : UTF-8
Codec ID                                 : S_TEXT/UTF8
Codec ID/Info                            : UTF-8 Plain Text
Language                                 : English
Default                                  : No
Forced                                   : No

Menu
00:00:00.000                             : en:00:00:00.000
00:02:34.571                             : en:00:02:34.571
00:09:40.246                             : en:00:09:40.246
00:13:27.598                             : en:00:13:27.598
00:15:15.039                             : en:00:15:15.039
00:22:55.124                             : en:00:22:55.124
00:26:16.825                             : en:00:26:16.825
00:32:21.231                             : en:00:32:21.231
00:46:07.723                             : en:00:46:07.723
00:49:55.534                             : en:00:49:55.534
00:57:10.594                             : en:00:57:10.594
01:06:49.964                             : en:01:06:49.964
01:15:12.550                             : en:01:15:12.550
01:25:48.602                             : en:01:25:48.602
01:38:33.616                             : en:01:38:33.616
02:01:52.430                             : en:02:01:52.430
02:17:28.073                             : en:02:17:28.073
02:24:10.225                             : en:02:24:10.225
02:30:53.670                             : en:02:30:53.670
Ara
Cevapla


Konu ile Alakalı Benzer Konular
Konular Yazar Yorumlar Okunma Son Yorum
  Ben Hur | 2016 | 720p | BluRay | x264 | GECKOS breath-10 0 29 27-11-2016, Saat: 12:44
Son Yorum: breath-10
  The Whole Truth | 2016 | 720p | BluRay | x264 breath-10 0 171 27-11-2016, Saat: 12:34
Son Yorum: breath-10
  Jason Bourne | 2016 | 720p | BluRay | x264 | SPARKS breath-10 0 33 18-11-2016, Saat: 19:47
Son Yorum: breath-10
  Suicide Squad | 2016 | 1080p | WEB-DL | H264 | AC3 | EVO breath-10 0 37 15-11-2016, Saat: 23:34
Son Yorum: breath-10
  Mechanic Resurrection | 2016 | 720p | BluRay | x264 | DD5 1 | HDC breath-10 0 54 10-11-2016, Saat: 21:10
Son Yorum: breath-10

Hızlı Menü:

Hakkımızda
Sitemizde yer alan tüm videolar, filmler kaynak kodları ile Turbobit, Uploaded, Ul.to v.b. dosya paylaşım sitelerinden alınmaktadır. Telif hakları sorumluluğu bu sitelere aittir. Dosyaların hiç biri sunucularımızda bulunmamaktadır. Yine de hak sahiplerinin talep etmesi halinde istenen içerik siteden kaldırılabilir. İletişim adresi sitemizde mevcuttur. İletişim / Contact (Reklam, Dmca, Telif vs):okaan9999@gmail.com
Forum