DivxDepo.NET - Film indir - Dizi indir - Oyun indir
Hoşgeldin, Ziyaretçi: Üye Ol
DivxDepo.Net'e Hoşgeldiniz :)
Umarım Aradığınızı Bulursunuz.İsteklerinizi İletişim Sayfamızdan bildirebilirsiniz.

DivxDepo.Net Önerdiklerimiz
Konuyu Oyla:
  • Toplam: 0 Oy - Ortalama: 0
  • 1
  • 2
  • 3
  • 4
  • 5
The Family (2013) 1080p BluRay x264-SPARKS Konuyu Okuyanlar: 1 Ziyaretçi
#1
The_Family_2013_1080p_Blu_Ray_x264_SPARKS.png

The.Family.2013.1080p.BluRay.x264-SPARKS

Kod:
http://uploaded.net/file/2q8s8bgr/The.Family.2013.1080p.BluRay.x264-SPARKS.part5.rar
http://uploaded.net/file/7hua3akm/The.Family.2013.1080p.BluRay.x264-SPARKS.part6.rar
http://uploaded.net/file/01awckmp/The.Family.2013.1080p.BluRay.x264-SPARKS.part1.rar
http://uploaded.net/file/wp97lllm/The.Family.2013.1080p.BluRay.x264-SPARKS.part2.rar
http://uploaded.net/file/m6pditv3/The.Family.2013.1080p.BluRay.x264-SPARKS.part4.rar
http://uploaded.net/file/z8b94ur1/The.Family.2013.1080p.BluRay.x264-SPARKS.part3.rar
http://uploaded.net/file/3bxtqzd2/The.Family.2013.1080p.BluRay.x264-SPARKS.part7.rar
http://uploaded.net/file/obn885sr/The.Family.2013.1080p.BluRay.x264-SPARKS.part8.rar

Kod:
http://uploadrocket.net/1q0pnlsv4wl8/The.Family.2013.1080p.BluRay.x264-SPARKS.part1.rar.html
http://uploadrocket.net/n7cu49zkj9a3/The.Family.2013.1080p.BluRay.x264-SPARKS.part2.rar.html
http://uploadrocket.net/vek255atdue8/The.Family.2013.1080p.BluRay.x264-SPARKS.part3.rar.html
http://uploadrocket.net/p10xap7tg0al/The.Family.2013.1080p.BluRay.x264-SPARKS.part4.rar.html
http://uploadrocket.net/34glh224lqkc/The.Family.2013.1080p.BluRay.x264-SPARKS.part5.rar.html
http://uploadrocket.net/wcd5smqi6ham/The.Family.2013.1080p.BluRay.x264-SPARKS.part6.rar.html
http://uploadrocket.net/m7f3z7bm11sw/The.Family.2013.1080p.BluRay.x264-SPARKS.part7.rar.html
http://uploadrocket.net/0ibfxdmjitbw/The.Family.2013.1080p.BluRay.x264-SPARKS.part8.rar.html

Kod:
http://imdb.com/title/tt2404311/

62357856403983723317_thumb.png
35055885672467914380_thumb.png
85946098162763495806_thumb.png
38630352734412261370_thumb.png
06712370855347635643_thumb.png

Kod:
Video
ID                                       : 1
Format                                   : AVC
Format/Info                              : Advanced Video Codec
Format profile                           : High@L4.1
Format settings, CABAC                   : Yes
Format settings, ReFrames                : 5 frames
Codec ID                                 : V_MPEG4/ISO/AVC
Duration                                 : 1h 51mn
Bit rate                                 : 8 306 Kbps
Width                                    : 1 920 pixels
Height                                   : 808 pixels
Display aspect ratio                     : 2.40:1
Frame rate mode                          : Constant
Frame rate                               : 23.976 fps
Color space                              : YUV
Chroma subsampling                       : 4:2:0
Bit depth                                : 8 bits
Scan type                                : Progressive
Bits/(Pixel*Frame)                       : 0.223
Stream size                              : 6.31 GiB (83%)
Writing library                          : x264 core 140 r2377 1ca7bb9
Encoding settings                        : cabac=1 / ref=5 / deblock=1:0:0 / analyse=0x3:0x133 / me=umh / subme=7 / psy=1 / psy_rd=1.00:0.00 / mixed_ref=1 / me_range=16 / chroma_me=1 / trellis=1 / 8x8dct=1 / cqm=0 / deadzone=21,11 / fast_pskip=0 / chroma_qp_offset=-2 / threads=36 / lookahead_threads=6 / sliced_threads=0 / nr=0 / decimate=1 / interlaced=0 / bluray_compat=0 / constrained_intra=0 / bframes=3 / b_pyramid=2 / b_adapt=1 / b_bias=0 / direct=1 / weightb=1 / open_gop=0 / weightp=2 / keyint=250 / keyint_min=23 / scenecut=40 / intra_refresh=0 / rc_lookahead=40 / rc=2pass / mbtree=1 / bitrate=8306 / ratetol=1.0 / qcomp=0.60 / qpmin=0 / qpmax=69 / qpstep=4 / cplxblur=20.0 / qblur=0.5 / ip_ratio=1.40 / aq=1:1.00
Language                                 : English
Default                                  : Yes
Forced                                   : No

Audio
ID                                       : 2
Format                                   : DTS
Format/Info                              : Digital Theater Systems
Mode                                     : 16
Format settings, Endianness              : Big
Codec ID                                 : A_DTS
Duration                                 : 1h 51mn
Bit rate mode                            : Constant
Bit rate                                 : 1 509 Kbps
Channel(s)                               : 6 channels
Channel positions                        : Front: L C R, Side: L R, LFE
Sampling rate                            : 48.0 KHz
Bit depth                                : 24 bits
Compression mode                         : Lossy
Stream size                              : 1.18 GiB (15%)
Language                                 : English
Default                                  : Yes
Forced                                   : No

Text
ID                                       : 3
Format                                   : UTF-8
Codec ID                                 : S_TEXT/UTF8
Codec ID/Info                            : UTF-8 Plain Text
Language                                 : English
Default                                  : No
Forced                                   : No
Ara
Cevapla


Konu ile Alakalı Benzer Konular
Konular Yazar Yorumlar Okunma Son Yorum
  Ben Hur | 2016 | 720p | BluRay | x264 | GECKOS breath-10 0 29 27-11-2016, Saat: 12:44
Son Yorum: breath-10
  The Whole Truth | 2016 | 720p | BluRay | x264 breath-10 0 171 27-11-2016, Saat: 12:34
Son Yorum: breath-10
  Jason Bourne | 2016 | 720p | BluRay | x264 | SPARKS breath-10 0 33 18-11-2016, Saat: 19:47
Son Yorum: breath-10
  Suicide Squad | 2016 | 1080p | WEB-DL | H264 | AC3 | EVO breath-10 0 37 15-11-2016, Saat: 23:34
Son Yorum: breath-10
  Mechanic Resurrection | 2016 | 720p | BluRay | x264 | DD5 1 | HDC breath-10 0 54 10-11-2016, Saat: 21:10
Son Yorum: breath-10

Hızlı Menü:

Hakkımızda
Sitemizde yer alan tüm videolar, filmler kaynak kodları ile Turbobit, Uploaded, Ul.to v.b. dosya paylaşım sitelerinden alınmaktadır. Telif hakları sorumluluğu bu sitelere aittir. Dosyaların hiç biri sunucularımızda bulunmamaktadır. Yine de hak sahiplerinin talep etmesi halinde istenen içerik siteden kaldırılabilir. İletişim adresi sitemizde mevcuttur. İletişim / Contact (Reklam, Dmca, Telif vs):okaan9999@gmail.com
Forum