DivxDepo.NET - Film indir - Dizi indir - Oyun indir
Hoşgeldin, Ziyaretçi: Üye Ol
DivxDepo.Net'e Hoşgeldiniz :)
Umarım Aradığınızı Bulursunuz.İsteklerinizi İletişim Sayfamızdan bildirebilirsiniz.

DivxDepo.Net Önerdiklerimiz
Konuyu Oyla:
  • Toplam: 0 Oy - Ortalama: 0
  • 1
  • 2
  • 3
  • 4
  • 5
The Escapist (2008) 1080p BluRay x264 DTS-FGT Konuyu Okuyanlar: 1 Ziyaretçi
#1
The_Escapist_2008_1080p_Blu_Ray_x264_DTS_FGT.png

The.Escapist.2008.1080p.BluRay.x264.DTS-FGT

Kod:
http://uploaded.net/file/23umdotl/The.Escapist.2008.1080p.BluRay.x264.DTS-FGT.part01.rar
http://uploaded.net/file/4lr7x4de/The.Escapist.2008.1080p.BluRay.x264.DTS-FGT.part03.rar
http://uploaded.net/file/pxh0mq9o/The.Escapist.2008.1080p.BluRay.x264.DTS-FGT.part02.rar
http://uploaded.net/file/uqjc2ra4/The.Escapist.2008.1080p.BluRay.x264.DTS-FGT.part05.rar
http://uploaded.net/file/adpsl12w/The.Escapist.2008.1080p.BluRay.x264.DTS-FGT.part06.rar
http://uploaded.net/file/9w53kas1/The.Escapist.2008.1080p.BluRay.x264.DTS-FGT.part08.rar
http://uploaded.net/file/fun7woua/The.Escapist.2008.1080p.BluRay.x264.DTS-FGT.part04.rar
http://uploaded.net/file/istpladm/The.Escapist.2008.1080p.BluRay.x264.DTS-FGT.part07.rar
http://uploaded.net/file/ab6r6jhb/The.Escapist.2008.1080p.BluRay.x264.DTS-FGT.part09.rar

Kod:
http://uploadrocket.net/8i75p3mxorrk/The.Escapist.2008.1080p.BluRay.x264.DTS-FGT.part01.rar.html
http://uploadrocket.net/v8su9os10twh/The.Escapist.2008.1080p.BluRay.x264.DTS-FGT.part02.rar.html
http://uploadrocket.net/8kw50lx7d4hs/The.Escapist.2008.1080p.BluRay.x264.DTS-FGT.part03.rar.html
http://uploadrocket.net/hlex7a7qfcnc/The.Escapist.2008.1080p.BluRay.x264.DTS-FGT.part04.rar.html
http://uploadrocket.net/77vc9e2ino6x/The.Escapist.2008.1080p.BluRay.x264.DTS-FGT.part05.rar.html
http://uploadrocket.net/u8jk8mytet0x/The.Escapist.2008.1080p.BluRay.x264.DTS-FGT.part06.rar.html
http://uploadrocket.net/1obtbcxh4gs8/The.Escapist.2008.1080p.BluRay.x264.DTS-FGT.part07.rar.html
http://uploadrocket.net/rtee6dqkyua4/The.Escapist.2008.1080p.BluRay.x264.DTS-FGT.part08.rar.html
http://uploadrocket.net/v28wn9dvlcsj/The.Escapist.2008.1080p.BluRay.x264.DTS-FGT.part09.rar.html

Kod:
http://imdb.com/title/tt0961728/

07717394683930903895_thumb.png
83552922931160880311_thumb.png
66670984687069068288_thumb.png
11716698254118539880_thumb.png
62034448549081462730_thumb.png

Kod:
Video
ID                                       : 1
Format                                   : AVC
Format/Info                              : Advanced Video Codec
Format profile                           : High@L4.1
Format settings, CABAC                   : Yes
Format settings, ReFrames                : 4 frames
Codec ID                                 : V_MPEG4/ISO/AVC
Duration                                 : 1h 41mn
Bit rate                                 : 9 669 Kbps
Width                                    : 1 920 pixels
Height                                   : 1 040 pixels
Display aspect ratio                     : 1.85:1
Frame rate mode                          : Constant
Frame rate                               : 24.000 fps
Color space                              : YUV
Chroma subsampling                       : 4:2:0
Bit depth                                : 8 bits
Scan type                                : Progressive
Bits/(Pixel*Frame)                       : 0.202
Stream size                              : 6.70 GiB (85%)
Writing library                          : x264 core 67 r1123 3d78062
Encoding settings                        : cabac=1 / ref=4 / deblock=1:0:0 / analyse=0x3:0x133 / me=umh / subme=7 / psy_rd=1.0:0.0 / mixed_ref=1 / me_range=16 / chroma_me=1 / trellis=1 / 8x8dct=1 / cqm=0 / deadzone=21,11 / chroma_qp_offset=-4 / threads=3 / nr=0 / decimate=1 / mbaff=0 / bframes=3 / b_pyramid=1 / b_adapt=1 / b_bias=0 / direct=1 / wpredb=1 / keyint=250 / keyint_min=25 / scenecut=40 / rc=2pass / bitrate=9669 / ratetol=1.0 / qcomp=0.60 / qpmin=10 / qpmax=51 / qpstep=4 / cplxblur=20.0 / qblur=0.5 / ip_ratio=1.40 / pb_ratio=1.30 / aq=1:1.00 / zones=140787,146171,q=40
Language                                 : English
Default                                  : Yes
Forced                                   : No

Audio
ID                                       : 2
Format                                   : DTS
Format/Info                              : Digital Theater Systems
Mode                                     : 16
Format settings, Endianness              : Big
Codec ID                                 : A_DTS
Duration                                 : 1h 41mn
Bit rate mode                            : Constant
Bit rate                                 : 1 509 Kbps
Channel(s)                               : 6 channels
Channel positions                        : Front: L C R, Side: L R, LFE
Sampling rate                            : 48.0 KHz
Bit depth                                : 24 bits
Compression mode                         : Lossy
Stream size                              : 1.07 GiB (13%)
Language                                 : English
Default                                  : Yes
Forced                                   : No

Text #1
ID                                       : 3
Format                                   : UTF-8
Codec ID                                 : S_TEXT/UTF8
Codec ID/Info                            : UTF-8 Plain Text
Language                                 : Danish
Default                                  : Yes
Forced                                   : No

Text #2
ID                                       : 4
Format                                   : UTF-8
Codec ID                                 : S_TEXT/UTF8
Codec ID/Info                            : UTF-8 Plain Text
Language                                 : Finnish
Default                                  : No
Forced                                   : No

Text #3
ID                                       : 5
Format                                   : UTF-8
Codec ID                                 : S_TEXT/UTF8
Codec ID/Info                            : UTF-8 Plain Text
Language                                 : Swedish
Default                                  : No
Forced                                   : No
Ara
Cevapla


Konu ile Alakalı Benzer Konular
Konular Yazar Yorumlar Okunma Son Yorum
  Ben Hur | 2016 | 720p | BluRay | x264 | GECKOS breath-10 0 32 27-11-2016, Saat: 12:44
Son Yorum: breath-10
  The Whole Truth | 2016 | 720p | BluRay | x264 breath-10 0 172 27-11-2016, Saat: 12:34
Son Yorum: breath-10
  Jason Bourne | 2016 | 720p | BluRay | x264 | SPARKS breath-10 0 36 18-11-2016, Saat: 19:47
Son Yorum: breath-10
  Suicide Squad | 2016 | 1080p | WEB-DL | H264 | AC3 | EVO breath-10 0 37 15-11-2016, Saat: 23:34
Son Yorum: breath-10
  Mechanic Resurrection | 2016 | 720p | BluRay | x264 | DD5 1 | HDC breath-10 0 54 10-11-2016, Saat: 21:10
Son Yorum: breath-10

Hızlı Menü:

Hakkımızda
Sitemizde yer alan tüm videolar, filmler kaynak kodları ile Turbobit, Uploaded, Ul.to v.b. dosya paylaşım sitelerinden alınmaktadır. Telif hakları sorumluluğu bu sitelere aittir. Dosyaların hiç biri sunucularımızda bulunmamaktadır. Yine de hak sahiplerinin talep etmesi halinde istenen içerik siteden kaldırılabilir. İletişim adresi sitemizde mevcuttur. İletişim / Contact (Reklam, Dmca, Telif vs):okaan9999@gmail.com
Forum