DivxDepo.NET - Film indir - Dizi indir - Oyun indir
Hoşgeldin, Ziyaretçi: Üye Ol
DivxDepo.Net'e Hoşgeldiniz :)
Umarım Aradığınızı Bulursunuz.İsteklerinizi İletişim Sayfamızdan bildirebilirsiniz.

DivxDepo.Net Önerdiklerimiz
Konuyu Oyla:
  • Toplam: 0 Oy - Ortalama: 0
  • 1
  • 2
  • 3
  • 4
  • 5
The Big Hit (1998) 1080p BluRay x264 DTS-FGT Konuyu Okuyanlar: 1 Ziyaretçi
#1
The_Big_Hit_1998_1080p_Blu_Ray_x264_DTS_FGT.png

The.Big.Hit.1998.1080p.BluRay.x264.DTS-FGT


Kod:
http://uploaded.net/file/0xpp4tnp/The.Big.Hit.1998.1080p.BluRay.x264.DTS-FGT.part4.rar
http://uploaded.net/file/ybtm0afb/The.Big.Hit.1998.1080p.BluRay.x264.DTS-FGT.part2.rar
http://uploaded.net/file/8tdamrnv/The.Big.Hit.1998.1080p.BluRay.x264.DTS-FGT.part5.rar
http://uploaded.net/file/udek72go/The.Big.Hit.1998.1080p.BluRay.x264.DTS-FGT.part1.rar
http://uploaded.net/file/631vl9nb/The.Big.Hit.1998.1080p.BluRay.x264.DTS-FGT.part7.rar
http://uploaded.net/file/jjzgamym/The.Big.Hit.1998.1080p.BluRay.x264.DTS-FGT.part3.rar
http://uploaded.net/file/o1pr1nu8/The.Big.Hit.1998.1080p.BluRay.x264.DTS-FGT.part6.rar


Kod:
http://uploadrocket.net/2u5p0s215ev5/The.Big.Hit.1998.1080p.BluRay.x264.DTS-FGT.part1.rar.html
http://uploadrocket.net/ro6mtar9gatf/The.Big.Hit.1998.1080p.BluRay.x264.DTS-FGT.part2.rar.html
http://uploadrocket.net/9fdugxahciqm/The.Big.Hit.1998.1080p.BluRay.x264.DTS-FGT.part3.rar.html
http://uploadrocket.net/vfzikx6iq3a5/The.Big.Hit.1998.1080p.BluRay.x264.DTS-FGT.part4.rar.html
http://uploadrocket.net/ojjp15dhx965/The.Big.Hit.1998.1080p.BluRay.x264.DTS-FGT.part5.rar.html
http://uploadrocket.net/rr9qkllj1cqx/The.Big.Hit.1998.1080p.BluRay.x264.DTS-FGT.part6.rar.html
http://uploadrocket.net/xd8d03akozq6/The.Big.Hit.1998.1080p.BluRay.x264.DTS-FGT.part7.rar.html


Kod:
http://rapidgator.net/file/705bc11aca8a9611a5fa4cfe4ff97682/The.Big.Hit.1998.1080p.BluRay.x264.DTS-FGT.part2.rar.html
http://rapidgator.net/file/e7bde38913373885b9dfb3f9944a219a/The.Big.Hit.1998.1080p.BluRay.x264.DTS-FGT.part6.rar.html
http://rapidgator.net/file/c258167c063183e7a08e79709700cf29/The.Big.Hit.1998.1080p.BluRay.x264.DTS-FGT.part3.rar.html
http://rapidgator.net/file/c884c78c210727f0a127165974c3c2c1/The.Big.Hit.1998.1080p.BluRay.x264.DTS-FGT.part5.rar.html
http://rapidgator.net/file/631df4beacfb965e63d0ff19a1d8be60/The.Big.Hit.1998.1080p.BluRay.x264.DTS-FGT.part4.rar.html
http://rapidgator.net/file/ea45ca37274dfc1a523c9119c6e5b50b/The.Big.Hit.1998.1080p.BluRay.x264.DTS-FGT.part1.rar.html
http://rapidgator.net/file/c529295c9e1d2b05b16ec2fffc3c6e33/The.Big.Hit.1998.1080p.BluRay.x264.DTS-FGT.part7.rar.html


Kod:
http://imdb.com/title/tt0120609/


The_Big_Hit_1998_1080p_Blu_Ray_x264_DTS_FGT_s.jpg

Kod:
Video
ID                                       : 1
Format                                   : AVC
Format/Info                              : Advanced Video Codec
Format profile                           : High@L5.1
Format settings, CABAC                   : Yes
Format settings, ReFrames                : 8 frames
Codec ID                                 : V_MPEG4/ISO/AVC
Duration                                 : 1h 31mn
Bit rate                                 : 9 459 Kbps
Width                                    : 1 920 pixels
Height                                   : 1 040 pixels
Display aspect ratio                     : 1.85:1
Frame rate mode                          : Constant
Frame rate                               : 23.976 fps
Color space                              : YUV
Chroma subsampling                       : 4:2:0
Bit depth                                : 8 bits
Scan type                                : Progressive
Bits/(Pixel*Frame)                       : 0.198
Stream size                              : 5.91 GiB (91%)
Writing library                          : x264 core 56 svn-667C
Encoding settings                        : cabac=1 / ref=5 / deblock=1:-3:-3 / analyse=0x3:0x133 / me=umh / subme=7 / brdo=1 / mixed_ref=1 / me_range=16 / chroma_me=1 / trellis=1 / 8x8dct=1 / cqm=2 / deadzone=21,11 / chroma_qp_offset=0 / threads=2 / nr=0 / decimate=0 / mbaff=0 / bframes=3 / b_pyramid=1 / b_adapt=1 / b_bias=0 / direct=3 / wpredb=1 / bime=1 / keyint=250 / keyint_min=25 / scenecut=40(pre) / rc=2pass / bitrate=9459 / ratetol=1.0 / rceq='blurCplx^(1-qComp)' / qcomp=0.60 / qpmin=10 / qpmax=51 / qpstep=4 / cplxblur=20.0 / qblur=0.5 / ip_ratio=1.40 / pb_ratio=1.30
Language                                 : English
Default                                  : Yes
Forced                                   : No

Audio
ID                                       : 2
Format                                   : DTS
Format/Info                              : Digital Theater Systems
Mode                                     : 16
Format settings, Endianness              : Big
Codec ID                                 : A_DTS
Duration                                 : 1h 31mn
Bit rate mode                            : Constant
Bit rate                                 : 755 Kbps
Channel(s)                               : 6 channels
Channel positions                        : Front: L C R, Side: L R, LFE
Sampling rate                            : 48.0 KHz
Bit depth                                : 24 bits
Compression mode                         : Lossy
Stream size                              : 493 MiB (7%)
Language                                 : English
Default                                  : Yes
Forced                                   : No

Text
ID                                       : 3
Format                                   : UTF-8
Codec ID                                 : S_TEXT/UTF8
Codec ID/Info                            : UTF-8 Plain Text
Language                                 : English
Default                                  : Yes
Forced                                   : No
193298_o0025.png
Ara
Cevapla


Konu ile Alakalı Benzer Konular
Konular Yazar Yorumlar Okunma Son Yorum
  Ben Hur | 2016 | 720p | BluRay | x264 | GECKOS breath-10 0 31 27-11-2016, Saat: 12:44
Son Yorum: breath-10
  The Whole Truth | 2016 | 720p | BluRay | x264 breath-10 0 172 27-11-2016, Saat: 12:34
Son Yorum: breath-10
  Jason Bourne | 2016 | 720p | BluRay | x264 | SPARKS breath-10 0 35 18-11-2016, Saat: 19:47
Son Yorum: breath-10
  Suicide Squad | 2016 | 1080p | WEB-DL | H264 | AC3 | EVO breath-10 0 37 15-11-2016, Saat: 23:34
Son Yorum: breath-10
  Mechanic Resurrection | 2016 | 720p | BluRay | x264 | DD5 1 | HDC breath-10 0 54 10-11-2016, Saat: 21:10
Son Yorum: breath-10

Hızlı Menü:

Hakkımızda
Sitemizde yer alan tüm videolar, filmler kaynak kodları ile Turbobit, Uploaded, Ul.to v.b. dosya paylaşım sitelerinden alınmaktadır. Telif hakları sorumluluğu bu sitelere aittir. Dosyaların hiç biri sunucularımızda bulunmamaktadır. Yine de hak sahiplerinin talep etmesi halinde istenen içerik siteden kaldırılabilir. İletişim adresi sitemizde mevcuttur. İletişim / Contact (Reklam, Dmca, Telif vs):okaan9999@gmail.com
Forum