DivxDepo.NET - Film indir - Dizi indir - Oyun indir
Hoşgeldin, Ziyaretçi: Üye Ol
DivxDepo.Net'e Hoşgeldiniz :)
Umarım Aradığınızı Bulursunuz.İsteklerinizi İletişim Sayfamızdan bildirebilirsiniz.

DivxDepo.Net Önerdiklerimiz
Konuyu Oyla:
  • Toplam: 0 Oy - Ortalama: 0
  • 1
  • 2
  • 3
  • 4
  • 5
Ten Thousand Saints (2015) 1080p BluRay x264 DTS-RARBG Konuyu Okuyanlar: 1 Ziyaretçi
#1
Ten_Thousand_Saints_2015_720p_Blu_Ray_x264_ROVERS.png

Ten.Thousand.Saints.2015.1080p.BluRay.x264.DTS-RARBG


Kod:
http://uploaded.net/file/cusskfc4/Ten.Thousand.Saints.2015.1080p.BluRay.x264.DTS-RARBG.part06.rar
http://uploaded.net/file/edh2biqb/Ten.Thousand.Saints.2015.1080p.BluRay.x264.DTS-RARBG.part09.rar
http://uploaded.net/file/kse5p6mf/Ten.Thousand.Saints.2015.1080p.BluRay.x264.DTS-RARBG.part08.rar
http://uploaded.net/file/g7nehxde/Ten.Thousand.Saints.2015.1080p.BluRay.x264.DTS-RARBG.part03.rar
http://uploaded.net/file/lhjggjgl/Ten.Thousand.Saints.2015.1080p.BluRay.x264.DTS-RARBG.part04.rar
http://uploaded.net/file/fvg695pf/Ten.Thousand.Saints.2015.1080p.BluRay.x264.DTS-RARBG.part01.rar
http://uploaded.net/file/m608lqni/Ten.Thousand.Saints.2015.1080p.BluRay.x264.DTS-RARBG.part02.rar
http://uploaded.net/file/okjya8el/Ten.Thousand.Saints.2015.1080p.BluRay.x264.DTS-RARBG.part07.rar
http://uploaded.net/file/w6p2vvnz/Ten.Thousand.Saints.2015.1080p.BluRay.x264.DTS-RARBG.part05.rar
http://uploaded.net/file/32gh6655/Ten.Thousand.Saints.2015.1080p.BluRay.x264.DTS-RARBG.part10.rar


Kod:
http://uploadrocket.net/ptap3kjfbkoa/Ten.Thousand.Saints.2015.1080p.BluRay.x264.DTS-RARBG.part01.rar.html
http://uploadrocket.net/0edtbcr3zkcj/Ten.Thousand.Saints.2015.1080p.BluRay.x264.DTS-RARBG.part02.rar.html
http://uploadrocket.net/fklqhs7gf766/Ten.Thousand.Saints.2015.1080p.BluRay.x264.DTS-RARBG.part03.rar.html
http://uploadrocket.net/ha31fs0aceu2/Ten.Thousand.Saints.2015.1080p.BluRay.x264.DTS-RARBG.part04.rar.html
http://uploadrocket.net/79hj0mnlc55v/Ten.Thousand.Saints.2015.1080p.BluRay.x264.DTS-RARBG.part05.rar.html
http://uploadrocket.net/pak7gjxw3sez/Ten.Thousand.Saints.2015.1080p.BluRay.x264.DTS-RARBG.part06.rar.html
http://uploadrocket.net/gbs71v444mnm/Ten.Thousand.Saints.2015.1080p.BluRay.x264.DTS-RARBG.part07.rar.html
http://uploadrocket.net/zqbzyhufd9l9/Ten.Thousand.Saints.2015.1080p.BluRay.x264.DTS-RARBG.part08.rar.html
http://uploadrocket.net/vtb4s58gw40b/Ten.Thousand.Saints.2015.1080p.BluRay.x264.DTS-RARBG.part09.rar.html
http://uploadrocket.net/zpojupfjsugv/Ten.Thousand.Saints.2015.1080p.BluRay.x264.DTS-RARBG.part10.rar.html


Kod:
http://rapidgator.net/file/3995a843b0accd10da51daa47ce8de91/Ten.Thousand.Saints.2015.1080p.BluRay.x264.DTS-RARBG.part08.rar.html
http://rapidgator.net/file/5573117ec78513ac289b29dbd78d8ee6/Ten.Thousand.Saints.2015.1080p.BluRay.x264.DTS-RARBG.part06.rar.html
http://rapidgator.net/file/5c6dfa414c814e5fa3ac279fde6fd677/Ten.Thousand.Saints.2015.1080p.BluRay.x264.DTS-RARBG.part03.rar.html
http://rapidgator.net/file/bf27e6ea26888bafdf43a674352aa65c/Ten.Thousand.Saints.2015.1080p.BluRay.x264.DTS-RARBG.part07.rar.html
http://rapidgator.net/file/9e82afead2d1c489e6e856f6b81b8a8d/Ten.Thousand.Saints.2015.1080p.BluRay.x264.DTS-RARBG.part02.rar.html
http://rapidgator.net/file/68e6ba5186d2717efeeb15e1b005e0bd/Ten.Thousand.Saints.2015.1080p.BluRay.x264.DTS-RARBG.part04.rar.html
http://rapidgator.net/file/19bc8eb85abf798f06cd32a9e37e3849/Ten.Thousand.Saints.2015.1080p.BluRay.x264.DTS-RARBG.part01.rar.html
http://rapidgator.net/file/e8c93dabdfb3be6f1b8a20ea0558249f/Ten.Thousand.Saints.2015.1080p.BluRay.x264.DTS-RARBG.part09.rar.html
http://rapidgator.net/file/0c346f7299371a0febaaf2532253db37/Ten.Thousand.Saints.2015.1080p.BluRay.x264.DTS-RARBG.part05.rar.html
http://rapidgator.net/file/a441dd076fbff5170857483bbb2cdc74/Ten.Thousand.Saints.2015.1080p.BluRay.x264.DTS-RARBG.part10.rar.html


Kod:
http://www.imdb.com/title/tt3397754


Ten_Thousand_Saints_2015_1080p_Blu_Ray_x264_DTS_R.jpg

Kod:
Video
ID                                       : 1
Format                                   : AVC
Format/Info                              : Advanced Video Codec
Format profile                           : High@L4.1
Format settings, CABAC                   : Yes
Format settings, ReFrames                : 4 frames
Codec ID                                 : V_MPEG4/ISO/AVC
Duration                                 : 1h 47mn
Bit rate                                 : 10.8 Mbps
Nominal bit rate                         : 11.5 Mbps
Width                                    : 1 920 pixels
Height                                   : 1 036 pixels
Display aspect ratio                     : 1.85:1
Frame rate mode                          : Constant
Frame rate                               : 23.976 fps
Color space                              : YUV
Chroma subsampling                       : 4:2:0
Bit depth                                : 8 bits
Scan type                                : Progressive
Bits/(Pixel*Frame)                       : 0.226
Stream size                              : 8.05 GiB (86%)
Title                                    : Ten.Thousand.Saints.2015.1080p.BluRay.x264.DTS-RARBG
Writing library                          : x264 core 146 r2555 0c21480
Encoding settings                        : cabac=1 / ref=4 / deblock=1:-2:-2 / analyse=0x3:0x113 / me=umh / subme=7 / psy=1 / psy_rd=1.00:0.15 / mixed_ref=1 / me_range=16 / chroma_me=1 / trellis=1 / 8x8dct=1 / cqm=0 / deadzone=21,11 / fast_pskip=1 / chroma_qp_offset=-3 / threads=12 / lookahead_threads=3 / sliced_threads=0 / nr=0 / decimate=1 / interlaced=0 / bluray_compat=0 / constrained_intra=0 / bframes=3 / b_pyramid=2 / b_adapt=2 / b_bias=0 / direct=3 / weightb=1 / open_gop=0 / weightp=2 / keyint=250 / keyint_min=25 / scenecut=40 / intra_refresh=0 / rc_lookahead=50 / rc=abr / mbtree=1 / bitrate=11500 / ratetol=1.0 / qcomp=0.60 / qpmin=0 / qpmax=69 / qpstep=4 / vbv_maxrate=31250 / vbv_bufsize=31250 / nal_hrd=none / filler=0 / ip_ratio=1.40 / aq=1:1.00
Language                                 : English
Default                                  : Yes
Forced                                   : No

Audio
ID                                       : 2
Format                                   : DTS
Format/Info                              : Digital Theater Systems
Mode                                     : 16
Format settings, Endianness              : Big
Codec ID                                 : A_DTS
Duration                                 : 1h 47mn
Bit rate mode                            : Constant
Bit rate                                 : 1 509 Kbps
Channel(s)                               : 6 channels
Channel positions                        : Front: L C R, Side: L R, LFE
Sampling rate                            : 48.0 KHz
Bit depth                                : 24 bits
Compression mode                         : Lossy
Stream size                              : 1.13 GiB (12%)
Title                                    : Ten.Thousand.Saints.2015.1080p.BluRay.x264.DTS-RARBG
Language                                 : English
Default                                  : Yes
Forced                                   : No
193298_o0025.png
Ara
Cevapla


Konu ile Alakalı Benzer Konular
Konular Yazar Yorumlar Okunma Son Yorum
  Ben Hur | 2016 | 720p | BluRay | x264 | GECKOS breath-10 0 32 27-11-2016, Saat: 12:44
Son Yorum: breath-10
  The Whole Truth | 2016 | 720p | BluRay | x264 breath-10 0 172 27-11-2016, Saat: 12:34
Son Yorum: breath-10
  Jason Bourne | 2016 | 720p | BluRay | x264 | SPARKS breath-10 0 36 18-11-2016, Saat: 19:47
Son Yorum: breath-10
  Suicide Squad | 2016 | 1080p | WEB-DL | H264 | AC3 | EVO breath-10 0 37 15-11-2016, Saat: 23:34
Son Yorum: breath-10
  Mechanic Resurrection | 2016 | 720p | BluRay | x264 | DD5 1 | HDC breath-10 0 54 10-11-2016, Saat: 21:10
Son Yorum: breath-10

Hızlı Menü:

Hakkımızda
Sitemizde yer alan tüm videolar, filmler kaynak kodları ile Turbobit, Uploaded, Ul.to v.b. dosya paylaşım sitelerinden alınmaktadır. Telif hakları sorumluluğu bu sitelere aittir. Dosyaların hiç biri sunucularımızda bulunmamaktadır. Yine de hak sahiplerinin talep etmesi halinde istenen içerik siteden kaldırılabilir. İletişim adresi sitemizde mevcuttur. İletişim / Contact (Reklam, Dmca, Telif vs):okaan9999@gmail.com
Forum