DivxDepo.NET - Film indir - Dizi indir - Oyun indir
Hoşgeldin, Ziyaretçi: Üye Ol
DivxDepo.Net'e Hoşgeldiniz :)
Umarım Aradığınızı Bulursunuz.İsteklerinizi İletişim Sayfamızdan bildirebilirsiniz.

DivxDepo.Net Önerdiklerimiz
Konuyu Oyla:
  • Toplam: 0 Oy - Ortalama: 0
  • 1
  • 2
  • 3
  • 4
  • 5
Student Bodies (2015) 720p BluRay x264 DTS-RARBG Konuyu Okuyanlar: 1 Ziyaretçi
#1
Student_Bodies_2015_720p_Blu_Ray_x264_DTS_RARBG.png

Student.Bodies.2015.720p.BluRay.x264.DTS-RARBG

Kod:
http://uploaded.net/file/r2mscc5o/Student.Bodies.2015.720p.BluRay.x264.DTS-RARBG.part2.rar
http://uploaded.net/file/yiux1cc5/Student.Bodies.2015.720p.BluRay.x264.DTS-RARBG.part3.rar
http://uploaded.net/file/279dtbms/Student.Bodies.2015.720p.BluRay.x264.DTS-RARBG.part1.rar
http://uploaded.net/file/rzzfhqhx/Student.Bodies.2015.720p.BluRay.x264.DTS-RARBG.part4.rar
http://uploaded.net/file/k275hoxj/Student.Bodies.2015.720p.BluRay.x264.DTS-RARBG.part5.rar

Kod:
http://uploadrocket.net/7bzbtkao3k2v/Student.Bodies.2015.720p.BluRay.x264.DTS-RARBG.part1.rar.html
http://uploadrocket.net/dzp980pzco7f/Student.Bodies.2015.720p.BluRay.x264.DTS-RARBG.part2.rar.html
http://uploadrocket.net/wczivx144z3u/Student.Bodies.2015.720p.BluRay.x264.DTS-RARBG.part3.rar.html
http://uploadrocket.net/a8dszx8v80hk/Student.Bodies.2015.720p.BluRay.x264.DTS-RARBG.part4.rar.html
http://uploadrocket.net/qf4vnpkkmr1p/Student.Bodies.2015.720p.BluRay.x264.DTS-RARBG.part5.rar.html

Kod:
http://imdb.com/title/tt3132422/

05387181626208788998_thumb.png
77289993924763117768_thumb.png
96869534932595399814_thumb.png
69052655569007775159_thumb.png
83610237362057130114_thumb.png

Kod:
Video
ID                                       : 1
Format                                   : AVC
Format/Info                              : Advanced Video Codec
Format profile                           : High@L4.1
Format settings, CABAC                   : Yes
Format settings, ReFrames                : 4 frames
Codec ID                                 : V_MPEG4/ISO/AVC
Duration                                 : 1h 31mn
Bit rate                                 : 5 234 Kbps
Nominal bit rate                         : 5 500 Kbps
Width                                    : 1 280 pixels
Height                                   : 720 pixels
Display aspect ratio                     : 16:9
Frame rate mode                          : Constant
Frame rate                               : 23.976 fps
Color space                              : YUV
Chroma subsampling                       : 4:2:0
Bit depth                                : 8 bits
Scan type                                : Progressive
Bits/(Pixel*Frame)                       : 0.237
Stream size                              : 3.35 GiB (85%)
Title                                    : Student.Bodies.2015.720p.BluRay.x264.DTS-RARBG
Writing library                          : x264 core 144 r96 40bb568
Encoding settings                        : cabac=1 / ref=4 / deblock=1:-2:-2 / analyse=0x3:0x113 / me=umh / subme=7 / psy=1 / psy_rd=1.00:0.15 / mixed_ref=1 / me_range=16 / chroma_me=1 / trellis=1 / 8x8dct=1 / cqm=0 / deadzone=21,11 / fast_pskip=1 / chroma_qp_offset=-3 / threads=12 / lookahead_threads=3 / sliced_threads=0 / nr=0 / decimate=1 / interlaced=0 / bluray_compat=0 / constrained_intra=0 / bframes=3 / b_pyramid=2 / b_adapt=2 / b_bias=0 / direct=3 / weightb=1 / open_gop=0 / weightp=2 / keyint=250 / keyint_min=25 / scenecut=40 / intra_refresh=0 / rc_lookahead=50 / rc=abr / mbtree=1 / bitrate=5500 / ratetol=1.0 / qcomp=0.60 / qpmin=0 / qpmax=69 / qpstep=4 / vbv_maxrate=31250 / vbv_bufsize=31250 / nal_hrd=none / filler=0 / ip_ratio=1.40 / aq=1:1.00
Language                                 : English
Default                                  : Yes
Forced                                   : No

Audio
ID                                       : 2
Format                                   : DTS
Format/Info                              : Digital Theater Systems
Mode                                     : 16
Format settings, Endianness              : Big
Codec ID                                 : A_DTS
Duration                                 : 1h 31mn
Bit rate mode                            : Constant
Bit rate                                 : 768 Kbps
Channel(s)                               : 6 channels
Channel positions                        : Front: L C R, Side: L R, LFE
Sampling rate                            : 48.0 KHz
Bit depth                                : 16 bits
Compression mode                         : Lossy
Stream size                              : 503 MiB (13%)
Title                                    : Student.Bodies.2015.720p.BluRay.x264.DTS-RARBG
Language                                 : English
Default                                  : Yes
Forced                                   : No
Ara
Cevapla


Konu ile Alakalı Benzer Konular
Konular Yazar Yorumlar Okunma Son Yorum
  Ben Hur | 2016 | 720p | BluRay | x264 | GECKOS breath-10 0 31 27-11-2016, Saat: 12:44
Son Yorum: breath-10
  Ben Hur | 2016 | 720p | BRRip | X264 | AC3 | EVO breath-10 0 29 27-11-2016, Saat: 12:42
Son Yorum: breath-10
  The Whole Truth | 2016 | 720p | BluRay | x264 breath-10 0 172 27-11-2016, Saat: 12:34
Son Yorum: breath-10
  Jason Bourne | 2016 | 720p | BluRay | x264 | SPARKS breath-10 0 34 18-11-2016, Saat: 19:47
Son Yorum: breath-10
  Jason Bourne | 2016 | 720p | BRRIP | x264 | AC3 | MAJESTIC breath-10 0 24 18-11-2016, Saat: 19:45
Son Yorum: breath-10

Hızlı Menü:

Hakkımızda
Sitemizde yer alan tüm videolar, filmler kaynak kodları ile Turbobit, Uploaded, Ul.to v.b. dosya paylaşım sitelerinden alınmaktadır. Telif hakları sorumluluğu bu sitelere aittir. Dosyaların hiç biri sunucularımızda bulunmamaktadır. Yine de hak sahiplerinin talep etmesi halinde istenen içerik siteden kaldırılabilir. İletişim adresi sitemizde mevcuttur. İletişim / Contact (Reklam, Dmca, Telif vs):okaan9999@gmail.com
Forum