DivxDepo.NET - Film indir - Dizi indir - Oyun indir
Hoşgeldin, Ziyaretçi: Üye Ol
DivxDepo.Net'e Hoşgeldiniz :)
Umarım Aradığınızı Bulursunuz.İsteklerinizi İletişim Sayfamızdan bildirebilirsiniz.

DivxDepo.Net Önerdiklerimiz
Konuyu Oyla:
  • Toplam: 0 Oy - Ortalama: 0
  • 1
  • 2
  • 3
  • 4
  • 5
Sexy Beast (2000) 1080p BluRay x264-PSYCHD Konuyu Okuyanlar: 1 Ziyaretçi
#1
Sexy_Beast_2000_1080p_Blu_Ray_x264_PSYCHD.png

Sexy.Beast.2000.1080p.BluRay.x264-PSYCHD

Kod:
http://uploaded.net/file/miol9fkr/Sexy.Beast.2000.1080p.BluRay.x264-PSYCHD.part3.rar
http://uploaded.net/file/teq87syi/Sexy.Beast.2000.1080p.BluRay.x264-PSYCHD.part1.rar
http://uploaded.net/file/bmizg8bw/Sexy.Beast.2000.1080p.BluRay.x264-PSYCHD.part5.rar
http://uploaded.net/file/h6qx4sux/Sexy.Beast.2000.1080p.BluRay.x264-PSYCHD.part6.rar
http://uploaded.net/file/xuo976yx/Sexy.Beast.2000.1080p.BluRay.x264-PSYCHD.part2.rar
http://uploaded.net/file/8thfolj8/Sexy.Beast.2000.1080p.BluRay.x264-PSYCHD.part4.rar
http://uploaded.net/file/xekaddrw/Sexy.Beast.2000.1080p.BluRay.x264-PSYCHD.part7.rar

Kod:
http://uploadrocket.net/t3psk5wsz0il/Sexy.Beast.2000.1080p.BluRay.x264-PSYCHD.part1.rar.html
http://uploadrocket.net/uu6y6g77oz6f/Sexy.Beast.2000.1080p.BluRay.x264-PSYCHD.part2.rar.html
http://uploadrocket.net/xyl67cmpjjhq/Sexy.Beast.2000.1080p.BluRay.x264-PSYCHD.part3.rar.html
http://uploadrocket.net/co4rc4u457x3/Sexy.Beast.2000.1080p.BluRay.x264-PSYCHD.part4.rar.html
http://uploadrocket.net/l9pnr4w8hnjn/Sexy.Beast.2000.1080p.BluRay.x264-PSYCHD.part5.rar.html
http://uploadrocket.net/6yv1j4fkpl1o/Sexy.Beast.2000.1080p.BluRay.x264-PSYCHD.part6.rar.html
http://uploadrocket.net/z2ywqjpphphl/Sexy.Beast.2000.1080p.BluRay.x264-PSYCHD.part7.rar.html

Kod:
http://rapidgator.net/file/aa2981ada31e289395ec1dc9a534743b/Sexy.Beast.2000.1080p.BluRay.x264-PSYCHD.part4.rar.html
http://rapidgator.net/file/24b793edb19cf89584de3f74dfb5c279/Sexy.Beast.2000.1080p.BluRay.x264-PSYCHD.part6.rar.html
http://rapidgator.net/file/58295725061d9438cd19a8046ebe709f/Sexy.Beast.2000.1080p.BluRay.x264-PSYCHD.part3.rar.html
http://rapidgator.net/file/9d47d92e798b682e2178a3ab454016e9/Sexy.Beast.2000.1080p.BluRay.x264-PSYCHD.part5.rar.html
http://rapidgator.net/file/6accbf1540fc2062bed4867e7d25bea2/Sexy.Beast.2000.1080p.BluRay.x264-PSYCHD.part2.rar.html
http://rapidgator.net/file/636d975d5482b7bd94b1d26a68fcb7e6/Sexy.Beast.2000.1080p.BluRay.x264-PSYCHD.part1.rar.html
http://rapidgator.net/file/e37721e1a18af12968cefb0e43ab4627/Sexy.Beast.2000.1080p.BluRay.x264-PSYCHD.part7.rar.html

Kod:
http://imdb.com/title/tt0203119/

sexy_beast_2000_ws_1080p_bluray_x264_psychd_s.jpg

Kod:
Video
ID                                       : 1
Format                                   : AVC
Format/Info                              : Advanced Video Codec
Format profile                           : High@L4.1
Format settings, CABAC                   : Yes
Format settings, ReFrames                : 5 frames
Codec ID                                 : V_MPEG4/ISO/AVC
Duration                                 : 1h 28mn
Bit rate                                 : 9 072 Kbps
Width                                    : 1 920 pixels
Height                                   : 816 pixels
Display aspect ratio                     : 2.35:1
Frame rate mode                          : Constant
Frame rate                               : 23.976 fps
Color space                              : YUV
Chroma subsampling                       : 4:2:0
Bit depth                                : 8 bits
Scan type                                : Progressive
Bits/(Pixel*Frame)                       : 0.242
Stream size                              : 5.49 GiB (84%)
Writing library                          : x264 core 135 r2345 f0c1c53
Encoding settings                        : cabac=1 / ref=5 / deblock=1:-3:-3 / analyse=0x3:0x113 / me=umh / subme=8 / psy=1 / psy_rd=1.00:0.00 / mixed_ref=1 / me_range=16 / chroma_me=1 / trellis=1 / 8x8dct=1 / cqm=0 / deadzone=21,11 / fast_pskip=1 / chroma_qp_offset=-2 / threads=12 / lookahead_threads=2 / sliced_threads=0 / nr=0 / decimate=1 / interlaced=0 / bluray_compat=0 / constrained_intra=0 / bframes=3 / b_pyramid=2 / b_adapt=2 / b_bias=0 / direct=3 / weightb=1 / open_gop=0 / weightp=2 / keyint=240 / keyint_min=24 / scenecut=40 / intra_refresh=0 / rc_lookahead=50 / rc=2pass / mbtree=1 / bitrate=9072 / ratetol=1.0 / qcomp=0.60 / qpmin=0 / qpmax=69 / qpstep=4 / cplxblur=20.0 / qblur=0.5 / ip_ratio=1.40 / aq=1:1.00
Language                                 : English
Default                                  : Yes
Forced                                   : No

Audio
ID                                       : 2
Format                                   : DTS
Format/Info                              : Digital Theater Systems
Mode                                     : 16
Format settings, Endianness              : Big
Codec ID                                 : A_DTS
Duration                                 : 1h 28mn
Bit rate mode                            : Constant
Bit rate                                 : 1 509 Kbps
Channel(s)                               : 6 channels
Channel positions                        : Front: L C R, Side: L R, LFE
Sampling rate                            : 48.0 KHz
Bit depth                                : 24 bits
Compression mode                         : Lossy
Stream size                              : 958 MiB (14%)
Language                                 : English
Default                                  : Yes
Forced                                   : No

Text #1
ID                                       : 3
Format                                   : UTF-8
Codec ID                                 : S_TEXT/UTF8
Codec ID/Info                            : UTF-8 Plain Text
Title                                    : SDH
Language                                 : English
Default                                  : No
Forced                                   : No

Text #2
ID                                       : 4
Format                                   : UTF-8
Codec ID                                 : S_TEXT/UTF8
Codec ID/Info                            : UTF-8 Plain Text
Language                                 : English
Default                                  : No
Forced                                   : No
Ara
Cevapla


Konu ile Alakalı Benzer Konular
Konular Yazar Yorumlar Okunma Son Yorum
  Ben Hur | 2016 | 720p | BluRay | x264 | GECKOS breath-10 0 45 27-11-2016, Saat: 12:44
Son Yorum: breath-10
  The Whole Truth | 2016 | 720p | BluRay | x264 breath-10 0 173 27-11-2016, Saat: 12:34
Son Yorum: breath-10
  Jason Bourne | 2016 | 720p | BluRay | x264 | SPARKS breath-10 0 37 18-11-2016, Saat: 19:47
Son Yorum: breath-10
  Suicide Squad | 2016 | 1080p | WEB-DL | H264 | AC3 | EVO breath-10 0 39 15-11-2016, Saat: 23:34
Son Yorum: breath-10
  Mechanic Resurrection | 2016 | 720p | BluRay | x264 | DD5 1 | HDC breath-10 0 56 10-11-2016, Saat: 21:10
Son Yorum: breath-10

Hızlı Menü:

Hakkımızda
Sitemizde yer alan tüm videolar, filmler kaynak kodları ile Turbobit, Uploaded, Ul.to v.b. dosya paylaşım sitelerinden alınmaktadır. Telif hakları sorumluluğu bu sitelere aittir. Dosyaların hiç biri sunucularımızda bulunmamaktadır. Yine de hak sahiplerinin talep etmesi halinde istenen içerik siteden kaldırılabilir. İletişim adresi sitemizde mevcuttur. İletişim / Contact (Reklam, Dmca, Telif vs):okaan9999@gmail.com
Forum