DivxDepo.NET - Film indir - Dizi indir - Oyun indir
Hoşgeldin, Ziyaretçi: Üye Ol
DivxDepo.Net'e Hoşgeldiniz :)
Umarım Aradığınızı Bulursunuz.İsteklerinizi İletişim Sayfamızdan bildirebilirsiniz.

DivxDepo.Net Önerdiklerimiz
Konuyu Oyla:
  • Toplam: 0 Oy - Ortalama: 0
  • 1
  • 2
  • 3
  • 4
  • 5
Secretariat (2010) 1080p BluRay x264 DTS-FGT Konuyu Okuyanlar: 1 Ziyaretçi
#1
Secretariat_2010_1080p_Blu_Ray_x264_DTS_FGT.png

Secretariat.2010.1080p.BluRay.x264.DTS-FGT

Kod:
http://uploaded.net/file/z1qav3tx/Secretariat.2010.1080p.BluRay.x264.DTS-FGT.part14.rar
http://uploaded.net/file/npuzcotc/Secretariat.2010.1080p.BluRay.x264.DTS-FGT.part13.rar
http://uploaded.net/file/i2dhrf1q/Secretariat.2010.1080p.BluRay.x264.DTS-FGT.part12.rar
http://uploaded.net/file/m17fnot1/Secretariat.2010.1080p.BluRay.x264.DTS-FGT.part11.rar
http://uploaded.net/file/pkn3gajr/Secretariat.2010.1080p.BluRay.x264.DTS-FGT.part10.rar
http://uploaded.net/file/lzlln1q3/Secretariat.2010.1080p.BluRay.x264.DTS-FGT.part15.rar
http://uploaded.net/file/ri2t5fqq/Secretariat.2010.1080p.BluRay.x264.DTS-FGT.part09.rar
http://uploaded.net/file/6tbnscur/Secretariat.2010.1080p.BluRay.x264.DTS-FGT.part08.rar
http://uploaded.net/file/2zu9kxw6/Secretariat.2010.1080p.BluRay.x264.DTS-FGT.part05.rar
http://uploaded.net/file/qcq381mx/Secretariat.2010.1080p.BluRay.x264.DTS-FGT.part07.rar
http://uploaded.net/file/1yzwnkls/Secretariat.2010.1080p.BluRay.x264.DTS-FGT.part02.rar
http://uploaded.net/file/t4iv2cc3/Secretariat.2010.1080p.BluRay.x264.DTS-FGT.part03.rar
http://uploaded.net/file/c15qzcu5/Secretariat.2010.1080p.BluRay.x264.DTS-FGT.part04.rar
http://uploaded.net/file/s5b3pwqg/Secretariat.2010.1080p.BluRay.x264.DTS-FGT.part06.rar
http://uploaded.net/file/1iecfl71/Secretariat.2010.1080p.BluRay.x264.DTS-FGT.part01.rar

Kod:
http://uploadrocket.net/2njm8o2903q7/Secretariat.2010.1080p.BluRay.x264.DTS-FGT.part01.rar.html
http://uploadrocket.net/i9qtaa4ba0w7/Secretariat.2010.1080p.BluRay.x264.DTS-FGT.part02.rar.html
http://uploadrocket.net/dbfamb1qgsj9/Secretariat.2010.1080p.BluRay.x264.DTS-FGT.part03.rar.html
http://uploadrocket.net/v0l7yk600ky0/Secretariat.2010.1080p.BluRay.x264.DTS-FGT.part04.rar.html
http://uploadrocket.net/em03yaocnnxl/Secretariat.2010.1080p.BluRay.x264.DTS-FGT.part05.rar.html
http://uploadrocket.net/ukoxpre2uoef/Secretariat.2010.1080p.BluRay.x264.DTS-FGT.part06.rar.html
http://uploadrocket.net/4fwjhwayp8i7/Secretariat.2010.1080p.BluRay.x264.DTS-FGT.part07.rar.html
http://uploadrocket.net/mkahyyq5wb1t/Secretariat.2010.1080p.BluRay.x264.DTS-FGT.part08.rar.html
http://uploadrocket.net/mzo3keojzrf5/Secretariat.2010.1080p.BluRay.x264.DTS-FGT.part09.rar.html
http://uploadrocket.net/6szrspfugfu7/Secretariat.2010.1080p.BluRay.x264.DTS-FGT.part10.rar.html
http://uploadrocket.net/j2yp138zuak2/Secretariat.2010.1080p.BluRay.x264.DTS-FGT.part11.rar.html
http://uploadrocket.net/f9xqjz775c2f/Secretariat.2010.1080p.BluRay.x264.DTS-FGT.part12.rar.html
http://uploadrocket.net/r6ardqfewy5c/Secretariat.2010.1080p.BluRay.x264.DTS-FGT.part13.rar.html
http://uploadrocket.net/ijrszke2q210/Secretariat.2010.1080p.BluRay.x264.DTS-FGT.part14.rar.html
http://uploadrocket.net/wypjp5k5pull/Secretariat.2010.1080p.BluRay.x264.DTS-FGT.part15.rar.html

Kod:
http://imdb.com/title/tt1028576/

10897626850459423196_thumb.png
49337226174529723321_thumb.png
15793598377055774102_thumb.png
48197201507097206059_thumb.png
42975769941690432196_thumb.png

Kod:
Video
ID                                       : 1
Format                                   : AVC
Format/Info                              : Advanced Video Codec
Format profile                           : High@L4.1
Format settings, CABAC                   : Yes
Format settings, ReFrames                : 5 frames
Codec ID                                 : V_MPEG4/ISO/AVC
Duration                                 : 2h 2mn
Bit rate                                 : 15.0 Mbps
Width                                    : 1 920 pixels
Height                                   : 816 pixels
Display aspect ratio                     : 2.35:1
Frame rate mode                          : Constant
Frame rate                               : 23.976 fps
Color space                              : YUV
Chroma subsampling                       : 4:2:0
Bit depth                                : 8 bits
Scan type                                : Progressive
Bits/(Pixel*Frame)                       : 0.399
Stream size                              : 12.6 GiB (89%)
Writing library                          : x264 core 112 r1867 22bfd31
Encoding settings                        : cabac=1 / ref=5 / deblock=1:-3:-3 / analyse=0x3:0x113 / me=tesa / subme=10 / psy=1 / psy_rd=1.00:0.00 / mixed_ref=1 / me_range=16 / chroma_me=1 / trellis=2 / 8x8dct=1 / cqm=0 / deadzone=21,11 / fast_pskip=0 / chroma_qp_offset=-2 / threads=12 / sliced_threads=0 / nr=0 / decimate=0 / interlaced=0 / constrained_intra=0 / bframes=6 / b_pyramid=2 / b_adapt=2 / b_bias=0 / direct=3 / weightb=1 / open_gop=0 / weightp=2 / keyint=250 / keyint_min=23 / scenecut=40 / intra_refresh=0 / rc=2pass / mbtree=0 / bitrate=15000 / ratetol=1.0 / qcomp=0.60 / qpmin=0 / qpmax=51 / qpstep=4 / cplxblur=20.0 / qblur=0.5 / ip_ratio=1.40 / pb_ratio=1.30 / aq=1:1.00
Language                                 : English
Default                                  : Yes
Forced                                   : No

Audio
ID                                       : 2
Format                                   : DTS
Format/Info                              : Digital Theater Systems
Mode                                     : 16
Format settings, Endianness              : Big
Codec ID                                 : A_DTS
Duration                                 : 2h 2mn
Bit rate mode                            : Constant
Bit rate                                 : 1 509 Kbps
Channel(s)                               : 6 channels
Channel positions                        : Front: L C R, Side: L R, LFE
Sampling rate                            : 48.0 KHz
Bit depth                                : 24 bits
Compression mode                         : Lossy
Stream size                              : 1.30 GiB (9%)
Language                                 : English
Default                                  : Yes
Forced                                   : No

Text
ID                                       : 3
Format                                   : UTF-8
Codec ID                                 : S_TEXT/UTF8
Codec ID/Info                            : UTF-8 Plain Text
Language                                 : English
Default                                  : No
Forced                                   : No
Ara
Cevapla


Konu ile Alakalı Benzer Konular
Konular Yazar Yorumlar Okunma Son Yorum
  Ben Hur | 2016 | 720p | BluRay | x264 | GECKOS breath-10 0 45 27-11-2016, Saat: 12:44
Son Yorum: breath-10
  The Whole Truth | 2016 | 720p | BluRay | x264 breath-10 0 173 27-11-2016, Saat: 12:34
Son Yorum: breath-10
  Jason Bourne | 2016 | 720p | BluRay | x264 | SPARKS breath-10 0 37 18-11-2016, Saat: 19:47
Son Yorum: breath-10
  Suicide Squad | 2016 | 1080p | WEB-DL | H264 | AC3 | EVO breath-10 0 39 15-11-2016, Saat: 23:34
Son Yorum: breath-10
  Mechanic Resurrection | 2016 | 720p | BluRay | x264 | DD5 1 | HDC breath-10 0 56 10-11-2016, Saat: 21:10
Son Yorum: breath-10

Hızlı Menü:

Hakkımızda
Sitemizde yer alan tüm videolar, filmler kaynak kodları ile Turbobit, Uploaded, Ul.to v.b. dosya paylaşım sitelerinden alınmaktadır. Telif hakları sorumluluğu bu sitelere aittir. Dosyaların hiç biri sunucularımızda bulunmamaktadır. Yine de hak sahiplerinin talep etmesi halinde istenen içerik siteden kaldırılabilir. İletişim adresi sitemizde mevcuttur. İletişim / Contact (Reklam, Dmca, Telif vs):okaan9999@gmail.com
Forum