DivxDepo.NET - Film indir - Dizi indir - Oyun indir
Hoşgeldin, Ziyaretçi: Üye Ol
DivxDepo.Net'e Hoşgeldiniz :)
Umarım Aradığınızı Bulursunuz.İsteklerinizi İletişim Sayfamızdan bildirebilirsiniz.

DivxDepo.Net Önerdiklerimiz
Konuyu Oyla:
  • Toplam: 0 Oy - Ortalama: 0
  • 1
  • 2
  • 3
  • 4
  • 5
Sea Wolf (2009) 1080p BluRay x264 DD5.1-FGT Konuyu Okuyanlar: 1 Ziyaretçi
#1
Sea_Wolf_2009_1080p_Blu_Ray_x264_DD5_1_FGT.png

Sea.Wolf.2009.1080p.BluRay.x264.DD5.1-FGT

Kod:
http://uploaded.net/file/65tkggbu/Sea.Wolf.2009.1080p.BluRay.x264.DD5.1-FGT.part03.rar
http://uploaded.net/file/g67v8n2k/Sea.Wolf.2009.1080p.BluRay.x264.DD5.1-FGT.part10.rar
http://uploaded.net/file/9a60at8h/Sea.Wolf.2009.1080p.BluRay.x264.DD5.1-FGT.part06.rar
http://uploaded.net/file/yyltclu2/Sea.Wolf.2009.1080p.BluRay.x264.DD5.1-FGT.part01.rar
http://uploaded.net/file/s58svzp9/Sea.Wolf.2009.1080p.BluRay.x264.DD5.1-FGT.part08.rar
http://uploaded.net/file/er4mpxhl/Sea.Wolf.2009.1080p.BluRay.x264.DD5.1-FGT.part13.rar
http://uploaded.net/file/shc0oxa1/Sea.Wolf.2009.1080p.BluRay.x264.DD5.1-FGT.part17.rar
http://uploaded.net/file/ff0s4sfm/Sea.Wolf.2009.1080p.BluRay.x264.DD5.1-FGT.part05.rar
http://uploaded.net/file/s6gjya0m/Sea.Wolf.2009.1080p.BluRay.x264.DD5.1-FGT.part14.rar
http://uploaded.net/file/y15sk228/Sea.Wolf.2009.1080p.BluRay.x264.DD5.1-FGT.part18.rar
http://uploaded.net/file/z1lwiqtt/Sea.Wolf.2009.1080p.BluRay.x264.DD5.1-FGT.part11.rar
http://uploaded.net/file/mjl8s3hk/Sea.Wolf.2009.1080p.BluRay.x264.DD5.1-FGT.part09.rar
http://uploaded.net/file/lu4js88c/Sea.Wolf.2009.1080p.BluRay.x264.DD5.1-FGT.part04.rar
http://uploaded.net/file/ag326ld6/Sea.Wolf.2009.1080p.BluRay.x264.DD5.1-FGT.part19.rar
http://uploaded.net/file/oxzlznit/Sea.Wolf.2009.1080p.BluRay.x264.DD5.1-FGT.part15.rar
http://uploaded.net/file/y8y4noki/Sea.Wolf.2009.1080p.BluRay.x264.DD5.1-FGT.part16.rar
http://uploaded.net/file/di3vtd0i/Sea.Wolf.2009.1080p.BluRay.x264.DD5.1-FGT.part02.rar
http://uploaded.net/file/edxkiwk1/Sea.Wolf.2009.1080p.BluRay.x264.DD5.1-FGT.part12.rar
http://uploaded.net/file/qbpzmp0c/Sea.Wolf.2009.1080p.BluRay.x264.DD5.1-FGT.part07.rar

Kod:
http://imdb.com/title/tt1215482/

83396914595457310561_thumb.png
17208935733518863478_thumb.png
24750891779447812149_thumb.png
09391651027484504617_thumb.png
32066111643382013515_thumb.png

Kod:
Video
ID                                       : 1
Format                                   : AVC
Format/Info                              : Advanced Video Codec
Format profile                           : High@L4.1
Format settings, CABAC                   : Yes
Format settings, ReFrames                : 4 frames
Codec ID                                 : V_MPEG4/ISO/AVC
Duration                                 : 1h 30mn
Bit rate                                 : 14.1 Mbps
Width                                    : 1 920 pixels
Height                                   : 1 080 pixels
Display aspect ratio                     : 16:9
Frame rate mode                          : Constant
Frame rate                               : 23.976 fps
Color space                              : YUV
Chroma subsampling                       : 4:2:0
Bit depth                                : 8 bits
Scan type                                : Progressive
Bits/(Pixel*Frame)                       : 0.284
Stream size                              : 8.76 GiB (95%)
Writing library                          : x264 core 98 r1649 20cbe10
Encoding settings                        : cabac=1 / ref=4 / deblock=1:-2:-2 / analyse=0x3:0x113 / me=umh / subme=10 / psy=1 / psy_rd=1.00:0.00 / mixed_ref=1 / me_range=48 / chroma_me=1 / trellis=2 / 8x8dct=1 / cqm=0 / deadzone=21,11 / fast_pskip=0 / chroma_qp_offset=-2 / threads=3 / sliced_threads=0 / nr=0 / decimate=1 / interlaced=0 / constrained_intra=0 / bframes=7 / b_pyramid=2 / b_adapt=2 / b_bias=0 / direct=3 / weightb=1 / weightp=2 / keyint=250 / keyint_min=25 / scenecut=40 / intra_refresh=0 / rc_lookahead=60 / rc=2pass / mbtree=1 / bitrate=14100 / ratetol=1.0 / qcomp=0.80 / qpmin=10 / qpmax=51 / qpstep=4 / cplxblur=20.0 / qblur=0.5 / vbv_maxrate=50000 / vbv_bufsize=62500 / ip_ratio=1.40 / aq=1:1.00 / nal_hrd=none
Language                                 : English
Default                                  : Yes
Forced                                   : No

Audio
ID                                       : 2
Format                                   : AC-3
Format/Info                              : Audio Coding 3
Mode extension                           : CM (complete main)
Format settings, Endianness              : Big
Codec ID                                 : A_AC3
Duration                                 : 1h 30mn
Bit rate mode                            : Constant
Bit rate                                 : 448 Kbps
Channel(s)                               : 6 channels
Channel positions                        : Front: L C R, Side: L R, LFE
Sampling rate                            : 48.0 KHz
Compression mode                         : Lossy
Stream size                              : 291 MiB (3%)
Language                                 : English
Default                                  : Yes
Forced                                   : No

Menu
00:00:00.000                             : en:Chapter 1
00:07:46.000                             : en:Chapter 2
00:16:46.000                             : en:Chapter 3
00:23:58.000                             : en:Chapter 4
00:33:22.000                             : en:Chapter 5
00:39:08.000                             : en:Chapter 6
00:49:19.000                             : en:Chapter 7
00:56:09.000                             : en:Chapter 8
01:03:44.000                             : en:Chapter 9
01:12:55.000                             : en:Chapter 10
01:17:19.000                             : en:Chapter 11
01:29:29.000                             : en:Chapter 12


Video
ID                                       : 1
Format                                   : AVC
Format/Info                              : Advanced Video Codec
Format profile                           : High@L4.1
Format settings, CABAC                   : Yes
Format settings, ReFrames                : 4 frames
Codec ID                                 : V_MPEG4/ISO/AVC
Duration                                 : 1h 30mn
Bit rate                                 : 14.1 Mbps
Width                                    : 1 920 pixels
Height                                   : 1 080 pixels
Display aspect ratio                     : 16:9
Frame rate mode                          : Constant
Frame rate                               : 23.976 fps
Color space                              : YUV
Chroma subsampling                       : 4:2:0
Bit depth                                : 8 bits
Scan type                                : Progressive
Bits/(Pixel*Frame)                       : 0.284
Stream size                              : 8.75 GiB (95%)
Writing library                          : x264 core 98 r1649 20cbe10
Encoding settings                        : cabac=1 / ref=4 / deblock=1:-2:-2 / analyse=0x3:0x113 / me=umh / subme=10 / psy=1 / psy_rd=1.00:0.00 / mixed_ref=1 / me_range=48 / chroma_me=1 / trellis=2 / 8x8dct=1 / cqm=0 / deadzone=21,11 / fast_pskip=0 / chroma_qp_offset=-2 / threads=3 / sliced_threads=0 / nr=0 / decimate=1 / interlaced=0 / constrained_intra=0 / bframes=7 / b_pyramid=2 / b_adapt=2 / b_bias=0 / direct=3 / weightb=1 / weightp=2 / keyint=250 / keyint_min=25 / scenecut=40 / intra_refresh=0 / rc_lookahead=60 / rc=2pass / mbtree=1 / bitrate=14100 / ratetol=1.0 / qcomp=0.80 / qpmin=10 / qpmax=51 / qpstep=4 / cplxblur=20.0 / qblur=0.5 / vbv_maxrate=50000 / vbv_bufsize=62500 / ip_ratio=1.40 / aq=1:1.00 / nal_hrd=none
Language                                 : English
Default                                  : Yes
Forced                                   : No

Audio
ID                                       : 2
Format                                   : AC-3
Format/Info                              : Audio Coding 3
Mode extension                           : CM (complete main)
Format settings, Endianness              : Big
Codec ID                                 : A_AC3
Duration                                 : 1h 30mn
Bit rate mode                            : Constant
Bit rate                                 : 448 Kbps
Channel(s)                               : 6 channels
Channel positions                        : Front: L C R, Side: L R, LFE
Sampling rate                            : 48.0 KHz
Bit depth                                : 16 bits
Compression mode                         : Lossy
Stream size                              : 291 MiB (3%)
Language                                 : English
Default                                  : Yes
Forced                                   : No

Menu
00:00:00.000                             : en:Chapter 1
00:07:54.000                             : en:Chapter 2
00:16:23.000                             : en:Chapter 3
00:23:30.000                             : en:Chapter 4
00:27:59.000                             : en:Chapter 5
00:39:48.000                             : en:Chapter 6
00:49:51.000                             : en:Chapter 7
01:00:05.000                             : en:Chapter 8
01:08:13.000                             : en:Chapter 9
01:19:30.000                             : en:Chapter 10
01:25:17.000                             : en:Chapter 11
01:29:42.000                             : en:Chapter 12
Ara
Cevapla


Konu ile Alakalı Benzer Konular
Konular Yazar Yorumlar Okunma Son Yorum
  Ben Hur | 2016 | 720p | BluRay | x264 | GECKOS breath-10 0 31 27-11-2016, Saat: 12:44
Son Yorum: breath-10
  The Whole Truth | 2016 | 720p | BluRay | x264 breath-10 0 172 27-11-2016, Saat: 12:34
Son Yorum: breath-10
  Jason Bourne | 2016 | 720p | BluRay | x264 | SPARKS breath-10 0 34 18-11-2016, Saat: 19:47
Son Yorum: breath-10
  Suicide Squad | 2016 | 1080p | WEB-DL | H264 | AC3 | EVO breath-10 0 37 15-11-2016, Saat: 23:34
Son Yorum: breath-10
  Mechanic Resurrection | 2016 | 720p | BluRay | x264 | DD5 1 | HDC breath-10 0 54 10-11-2016, Saat: 21:10
Son Yorum: breath-10

Hızlı Menü:

Hakkımızda
Sitemizde yer alan tüm videolar, filmler kaynak kodları ile Turbobit, Uploaded, Ul.to v.b. dosya paylaşım sitelerinden alınmaktadır. Telif hakları sorumluluğu bu sitelere aittir. Dosyaların hiç biri sunucularımızda bulunmamaktadır. Yine de hak sahiplerinin talep etmesi halinde istenen içerik siteden kaldırılabilir. İletişim adresi sitemizde mevcuttur. İletişim / Contact (Reklam, Dmca, Telif vs):okaan9999@gmail.com
Forum