DivxDepo.NET - Film indir - Dizi indir - Oyun indir
Hoşgeldin, Ziyaretçi: Üye Ol
DivxDepo.Net'e Hoşgeldiniz :)
Umarım Aradığınızı Bulursunuz.İsteklerinizi İletişim Sayfamızdan bildirebilirsiniz.

DivxDepo.Net Önerdiklerimiz
Konuyu Oyla:
  • Toplam: 0 Oy - Ortalama: 0
  • 1
  • 2
  • 3
  • 4
  • 5
Quantum of Solace (2008) 1080p BluRay x264-REFiNED Konuyu Okuyanlar: 1 Ziyaretçi
#1
Quantum_of_Solace_2008_1080p_Blu_Ray_x264_REFi_NED.png

Quantum.of.Solace.2008.1080p.BluRay.x264-REFiNED

Kod:
http://uploaded.net/file/m54di4yl/Quantum.of.Solace.2008.1080p.BluRay.x264-REFiNED.part04.rar
http://uploaded.net/file/w1jqbzfa/Quantum.of.Solace.2008.1080p.BluRay.x264-REFiNED.part03.rar
http://uploaded.net/file/6meke459/Quantum.of.Solace.2008.1080p.BluRay.x264-REFiNED.part07.rar
http://uploaded.net/file/k18mg36z/Quantum.of.Solace.2008.1080p.BluRay.x264-REFiNED.part06.rar
http://uploaded.net/file/grrmfw74/Quantum.of.Solace.2008.1080p.BluRay.x264-REFiNED.part01.rar
http://uploaded.net/file/3bzt814y/Quantum.of.Solace.2008.1080p.BluRay.x264-REFiNED.part02.rar
http://uploaded.net/file/tdj4v6pn/Quantum.of.Solace.2008.1080p.BluRay.x264-REFiNED.part08.rar
http://uploaded.net/file/bfsmo583/Quantum.of.Solace.2008.1080p.BluRay.x264-REFiNED.part05.rar
http://uploaded.net/file/kb1ujulb/Quantum.of.Solace.2008.1080p.BluRay.x264-REFiNED.part09.rar

Kod:
http://uploadrocket.net/z2p7af8wnifz/A.View.to.a.Kill.1985.1080p.BluRay.X264-AMIABLE.part01.rar.html
http://uploadrocket.net/ftjkwbhjllyy/A.View.to.a.Kill.1985.1080p.BluRay.X264-AMIABLE.part02.rar.html
http://uploadrocket.net/j6dceu6m0wna/A.View.to.a.Kill.1985.1080p.BluRay.X264-AMIABLE.part03.rar.html
http://uploadrocket.net/tq2uw165di08/A.View.to.a.Kill.1985.1080p.BluRay.X264-AMIABLE.part04.rar.html
http://uploadrocket.net/4kwfi7izik8k/A.View.to.a.Kill.1985.1080p.BluRay.X264-AMIABLE.part05.rar.html
http://uploadrocket.net/byqbmlsplwh4/A.View.to.a.Kill.1985.1080p.BluRay.X264-AMIABLE.part06.rar.html
http://uploadrocket.net/kmbxoig8ywxp/A.View.to.a.Kill.1985.1080p.BluRay.X264-AMIABLE.part07.rar.html
http://uploadrocket.net/8xgctdpzn4ux/A.View.to.a.Kill.1985.1080p.BluRay.X264-AMIABLE.part08.rar.html
http://uploadrocket.net/jj8u3th2g9n2/A.View.to.a.Kill.1985.1080p.BluRay.X264-AMIABLE.part09.rar.html
http://uploadrocket.net/87c9uioa37lk/A.View.to.a.Kill.1985.1080p.BluRay.X264-AMIABLE.part10.rar.html
http://uploadrocket.net/7c24k65dgb4c/A.View.to.a.Kill.1985.1080p.BluRay.X264-AMIABLE.part11.rar.html

Kod:
http://imdb.com/title/tt0830515/

83623049203440286518_thumb.png
17649655498356591044_thumb.png
78316564009427881837_thumb.png
16465337937840755230_thumb.png
87449617618440954115_thumb.png

Kod:
Video
ID                                       : 1
Format                                   : AVC
Format/Info                              : Advanced Video Codec
Format profile                           : High@L4.1
Format settings, CABAC                   : Yes
Format settings, ReFrames                : 5 frames
Codec ID                                 : V_MPEG4/ISO/AVC
Duration                                 : 1h 46mn
Bit rate                                 : 10.3 Mbps
Width                                    : 1 920 pixels
Height                                   : 800 pixels
Display aspect ratio                     : 2.40:1
Frame rate mode                          : Constant
Frame rate                               : 23.976 fps
Color space                              : YUV
Chroma subsampling                       : 4:2:0
Bit depth                                : 8 bits
Scan type                                : Progressive
Bits/(Pixel*Frame)                       : 0.279
Stream size                              : 7.46 GiB (85%)
Writing library                          : x264 core 67 r1127 8d82fec
Encoding settings                        : cabac=1 / ref=5 / deblock=1:0:0 / analyse=0x3:0x113 / me=umh / subme=7 / psy_rd=1.0:0.0 / mixed_ref=1 / me_range=16 / chroma_me=1 / trellis=1 / 8x8dct=1 / cqm=0 / deadzone=21,11 / chroma_qp_offset=-2 / threads=6 / nr=0 / decimate=1 / mbaff=0 / bframes=3 / b_pyramid=1 / b_adapt=1 / b_bias=0 / direct=3 / wpredb=1 / keyint=250 / keyint_min=25 / scenecut=40 / rc=2pass / bitrate=10278 / ratetol=1.0 / qcomp=0.60 / qpmin=10 / qpmax=51 / qpstep=4 / cplxblur=20.0 / qblur=0.5 / ip_ratio=1.40 / pb_ratio=1.30 / aq=1:1.00
Language                                 : English
Default                                  : Yes
Forced                                   : No

Audio
ID                                       : 2
Format                                   : DTS
Format/Info                              : Digital Theater Systems
Mode                                     : 16
Format settings, Endianness              : Big
Codec ID                                 : A_DTS
Duration                                 : 1h 46mn
Bit rate mode                            : Constant
Bit rate                                 : 1 509 Kbps
Channel(s)                               : 6 channels
Channel positions                        : Front: L C R, Side: L R, LFE
Sampling rate                            : 48.0 KHz
Bit depth                                : 24 bits
Compression mode                         : Lossy
Stream size                              : 1.12 GiB (13%)
Language                                 : English
Default                                  : Yes
Forced                                   : No

Text
ID                                       : 3
Format                                   : UTF-8
Codec ID                                 : S_TEXT/UTF8
Codec ID/Info                            : UTF-8 Plain Text
Language                                 : English
Default                                  : No
Forced                                   : No
Ara
Cevapla


Konu ile Alakalı Benzer Konular
Konular Yazar Yorumlar Okunma Son Yorum
  Ben Hur | 2016 | 720p | BluRay | x264 | GECKOS breath-10 0 62 27-11-2016, Saat: 12:44
Son Yorum: breath-10
  The Whole Truth | 2016 | 720p | BluRay | x264 breath-10 0 182 27-11-2016, Saat: 12:34
Son Yorum: breath-10
  Jason Bourne | 2016 | 720p | BluRay | x264 | SPARKS breath-10 0 48 18-11-2016, Saat: 19:47
Son Yorum: breath-10
  Suicide Squad | 2016 | 1080p | WEB-DL | H264 | AC3 | EVO breath-10 0 51 15-11-2016, Saat: 23:34
Son Yorum: breath-10
  Mechanic Resurrection | 2016 | 720p | BluRay | x264 | DD5 1 | HDC breath-10 0 65 10-11-2016, Saat: 21:10
Son Yorum: breath-10

Hızlı Menü:

Hakkımızda
Sitemizde yer alan tüm videolar, filmler kaynak kodları ile Turbobit, Uploaded, Ul.to v.b. dosya paylaşım sitelerinden alınmaktadır. Telif hakları sorumluluğu bu sitelere aittir. Dosyaların hiç biri sunucularımızda bulunmamaktadır. Yine de hak sahiplerinin talep etmesi halinde istenen içerik siteden kaldırılabilir. İletişim adresi sitemizde mevcuttur. İletişim / Contact (Reklam, Dmca, Telif vs):okaan9999@gmail.com
Forum