DivxDepo.NET - Film indir - Dizi indir - Oyun indir
Hoşgeldin, Ziyaretçi: Üye Ol
DivxDepo.Net'e Hoşgeldiniz :)
Umarım Aradığınızı Bulursunuz.İsteklerinizi İletişim Sayfamızdan bildirebilirsiniz.

DivxDepo.Net Önerdiklerimiz
Konuyu Oyla:
  • Toplam: 0 Oy - Ortalama: 0
  • 1
  • 2
  • 3
  • 4
  • 5
Puncture (2011) 1080p BluRay x264 DTS-FGT Konuyu Okuyanlar: 1 Ziyaretçi
#1
Puncture_2011_1080p_Blu_Ray_x264_DTS_FGT.png

Puncture.2011.1080p.BluRay.x264.DTS-FGT


Kod:
http://uploaded.net/file/qnh6u2ny/Puncture.2011.1080p.BluRay.x264.DTS-FGT.part3.rar
http://uploaded.net/file/1n0txtiq/Puncture.2011.1080p.BluRay.x264.DTS-FGT.part2.rar
http://uploaded.net/file/gvzwi8br/Puncture.2011.1080p.BluRay.x264.DTS-FGT.part4.rar
http://uploaded.net/file/jpfmaw93/Puncture.2011.1080p.BluRay.x264.DTS-FGT.part1.rar
http://uploaded.net/file/ohsjka20/Puncture.2011.1080p.BluRay.x264.DTS-FGT.part5.rar


Kod:
http://rapidgator.net/file/30765492497b7e8a6708b58d1bf6fd4a/Puncture.2011.1080p.BluRay.x264.DTS-FGT.part3.rar.html
http://rapidgator.net/file/b8cc249512b28a47ec108fa743017023/Puncture.2011.1080p.BluRay.x264.DTS-FGT.part1.rar.html
http://rapidgator.net/file/6af9ad56482a7fa2db291acce23c442d/Puncture.2011.1080p.BluRay.x264.DTS-FGT.part4.rar.html
http://rapidgator.net/file/340cf85fbacf897a6b0c12cca258342b/Puncture.2011.1080p.BluRay.x264.DTS-FGT.part2.rar.html
http://rapidgator.net/file/e649c803ad2940b14dbdb4c5fe784b40/Puncture.2011.1080p.BluRay.x264.DTS-FGT.part5.rar.html


Kod:
http://imdb.com/title/tt1582248/


91856417627156563833_thumb.png
80825675471549323800_thumb.png
72351734872021173927_thumb.png
58404493560052679573_thumb.png
33500039430109618376_thumb.png
07451520874978532005_thumb.png

Kod:
Video
ID                                       : 1
Format                                   : AVC
Format/Info                              : Advanced Video Codec
Format profile                           : High@L4.1
Format settings, CABAC                   : Yes
Format settings, ReFrames                : 5 frames
Codec ID                                 : V_MPEG4/ISO/AVC
Duration                                 : 1h 39mn
Bit rate                                 : 11.5 Mbps
Width                                    : 1 920 pixels
Height                                   : 800 pixels
Display aspect ratio                     : 2.40:1
Frame rate mode                          : Constant
Frame rate                               : 23.976 fps
Color space                              : YUV
Chroma subsampling                       : 4:2:0
Bit depth                                : 8 bits
Scan type                                : Progressive
Bits/(Pixel*Frame)                       : 0.312
Stream size                              : 7.82 GiB (86%)
Writing library                          : x264 core 120 r2120 0c7dab9
Encoding settings                        : cabac=1 / ref=5 / deblock=1:-2:-2 / analyse=0x3:0x113 / me=tesa / subme=11 / psy=1 / psy_rd=0.99:0.01 / mixed_ref=1 / me_range=24 / chroma_me=1 / trellis=2 / 8x8dct=1 / cqm=0 / deadzone=21,11 / fast_pskip=1 / chroma_qp_offset=-3 / threads=12 / sliced_threads=0 / nr=0 / decimate=1 / interlaced=0 / bluray_compat=0 / constrained_intra=0 / bframes=8 / b_pyramid=2 / b_adapt=2 / b_bias=0 / direct=3 / weightb=1 / open_gop=0 / weightp=2 / keyint=250 / keyint_min=23 / scenecut=40 / intra_refresh=0 / rc_lookahead=90 / rc=2pass / mbtree=1 / bitrate=11500 / ratetol=1.0 / qcomp=0.60 / qpmin=10 / qpmax=69 / qpstep=4 / cplxblur=20.0 / qblur=0.5 / ip_ratio=1.40 / aq=2:0.90
Language                                 : English
Default                                  : No
Forced                                   : No

Audio
ID                                       : 2
Format                                   : DTS
Format/Info                              : Digital Theater Systems
Mode                                     : 16
Format settings, Endianness              : Big
Codec ID                                 : A_DTS
Duration                                 : 1h 39mn
Bit rate mode                            : Constant
Bit rate                                 : 1 510 Kbps
Channel(s)                               : 6 channels
Channel positions                        : Front: L C R, Side: L R, LFE
Sampling rate                            : 48.0 KHz
Bit depth                                : 24 bits
Compression mode                         : Lossy
Stream size                              : 1.05 GiB (12%)
Language                                 : English
Default                                  : Yes
Forced                                   : No

Text
ID                                       : 3
Format                                   : UTF-8
Codec ID                                 : S_TEXT/UTF8
Codec ID/Info                            : UTF-8 Plain Text
Language                                 : English
Default                                  : Yes
Forced                                   : No

Menu
00:00:00.000                             : en:00:00:00.000
00:11:37.780                             : en:00:11:37.780
00:16:03.546                             : en:00:16:03.546
00:27:31.733                             : en:00:27:31.733
00:33:55.867                             : en:00:33:55.867
00:39:41.129                             : en:00:39:41.129
00:46:16.816                             : en:00:46:16.816
00:51:30.254                             : en:00:51:30.254
00:58:22.249                             : en:00:58:22.249
01:08:44.746                             : en:01:08:44.746
01:20:21.734                             : en:01:20:21.734
01:33:46.204                             : en:01:33:46.204
Ara
Cevapla


Konu ile Alakalı Benzer Konular
Konular Yazar Yorumlar Okunma Son Yorum
  Ben Hur | 2016 | 720p | BluRay | x264 | GECKOS breath-10 0 45 27-11-2016, Saat: 12:44
Son Yorum: breath-10
  The Whole Truth | 2016 | 720p | BluRay | x264 breath-10 0 173 27-11-2016, Saat: 12:34
Son Yorum: breath-10
  Jason Bourne | 2016 | 720p | BluRay | x264 | SPARKS breath-10 0 37 18-11-2016, Saat: 19:47
Son Yorum: breath-10
  Suicide Squad | 2016 | 1080p | WEB-DL | H264 | AC3 | EVO breath-10 0 39 15-11-2016, Saat: 23:34
Son Yorum: breath-10
  Mechanic Resurrection | 2016 | 720p | BluRay | x264 | DD5 1 | HDC breath-10 0 56 10-11-2016, Saat: 21:10
Son Yorum: breath-10

Hızlı Menü:

Hakkımızda
Sitemizde yer alan tüm videolar, filmler kaynak kodları ile Turbobit, Uploaded, Ul.to v.b. dosya paylaşım sitelerinden alınmaktadır. Telif hakları sorumluluğu bu sitelere aittir. Dosyaların hiç biri sunucularımızda bulunmamaktadır. Yine de hak sahiplerinin talep etmesi halinde istenen içerik siteden kaldırılabilir. İletişim adresi sitemizde mevcuttur. İletişim / Contact (Reklam, Dmca, Telif vs):okaan9999@gmail.com
Forum