DivxDepo.NET - Film indir - Dizi indir - Oyun indir
Hoşgeldin, Ziyaretçi: Üye Ol
DivxDepo.Net'e Hoşgeldiniz :)
Umarım Aradığınızı Bulursunuz.İsteklerinizi İletişim Sayfamızdan bildirebilirsiniz.

DivxDepo.Net Önerdiklerimiz
Konuyu Oyla:
  • Toplam: 0 Oy - Ortalama: 0
  • 1
  • 2
  • 3
  • 4
  • 5
Poseidon (2006) 1080p BluRay x264 DTS-FGT Konuyu Okuyanlar: 1 Ziyaretçi
#1
Poseidon_2006_1080p_Blu_Ray_x264_DTS_FGT.png

Poseidon.2006.1080p.BluRay.x264.DTS-FGT


Kod:
http://uploaded.net/file/esox4tu5/Poseidon.2006.1080p.BluRay.x264.DTS-FGT.part2.rar
http://uploaded.net/file/3qo946dc/Poseidon.2006.1080p.BluRay.x264.DTS-FGT.part3.rar
http://uploaded.net/file/8tb1kpe5/Poseidon.2006.1080p.BluRay.x264.DTS-FGT.part1.rar
http://uploaded.net/file/t15caend/Poseidon.2006.1080p.BluRay.x264.DTS-FGT.part4.rar
http://uploaded.net/file/lp6egidj/Poseidon.2006.1080p.BluRay.x264.DTS-FGT.part5.rar
http://uploaded.net/file/9jgta4ws/Poseidon.2006.1080p.BluRay.x264.DTS-FGT.part6.rar


Kod:
http://rapidgator.net/file/cb2539c28142489a6e5f7f24b52aa056/Poseidon.2006.1080p.BluRay.x264.DTS-FGT.part4.rar.html
http://rapidgator.net/file/ae38b1dc35bbc3af5f4c8a1ffe3cb540/Poseidon.2006.1080p.BluRay.x264.DTS-FGT.part3.rar.html
http://rapidgator.net/file/ba3131ed232e270ae5b6f05ff0c84832/Poseidon.2006.1080p.BluRay.x264.DTS-FGT.part1.rar.html
http://rapidgator.net/file/3a1046e240ce5d5c6b0d7192a8b8554e/Poseidon.2006.1080p.BluRay.x264.DTS-FGT.part2.rar.html
http://rapidgator.net/file/531237c42f421a4dd4359af95cec1144/Poseidon.2006.1080p.BluRay.x264.DTS-FGT.part5.rar.html
http://rapidgator.net/file/860a422873ccf5dbc9e4806dfd5c1f71/Poseidon.2006.1080p.BluRay.x264.DTS-FGT.part6.rar.html


Kod:
http://imdb.com/title/tt0409182/


95035799603350522303_thumb.png
28264098525348357271_thumb.png
09105152025919076721_thumb.png
53083607350259504372_thumb.png
87992201367672336862_thumb.png
62039746648156143498_thumb.png

Kod:
Video
ID                                       : 1
Format                                   : AVC
Format/Info                              : Advanced Video Codec
Format profile                           : High@L4.1
Format settings, CABAC                   : Yes
Format settings, ReFrames                : 5 frames
Codec ID                                 : V_MPEG4/ISO/AVC
Duration                                 : 1h 38mn
Bit rate                                 : 13.4 Mbps
Width                                    : 1 920 pixels
Height                                   : 792 pixels
Display aspect ratio                     : 2.40:1
Frame rate mode                          : Constant
Frame rate                               : 23.976 fps
Color space                              : YUV
Chroma subsampling                       : 4:2:0
Bit depth                                : 8 bits
Scan type                                : Progressive
Bits/(Pixel*Frame)                       : 0.368
Stream size                              : 8.97 GiB (88%)
Writing library                          : x264 core 93 r1538 bd72d46
Encoding settings                        : cabac=1 / ref=5 / deblock=1:-3:-3 / analyse=0x3:0x113 / me=umh / subme=10 / psy=1 / psy_rd=1.00:0.15 / mixed_ref=1 / me_range=32 / chroma_me=1 / trellis=2 / 8x8dct=1 / cqm=0 / deadzone=21,11 / fast_pskip=0 / chroma_qp_offset=-3 / threads=12 / sliced_threads=0 / nr=0 / decimate=1 / interlaced=0 / constrained_intra=0 / bframes=6 / b_pyramid=2 / b_adapt=2 / b_bias=0 / direct=3 / wpredb=1 / wpredp=2 / keyint=250 / keyint_min=25 / scenecut=40 / intra_refresh=0 / rc_lookahead=60 / rc=2pass / mbtree=1 / bitrate=13400 / ratetol=1.0 / qcomp=0.60 / qpmin=10 / qpmax=51 / qpstep=4 / cplxblur=20.0 / qblur=0.5 / vbv_maxrate=50000 / vbv_bufsize=50000 / ip_ratio=1.40 / aq=1:0.80 / nal_hrd=none
Language                                 : English
Default                                  : Yes
Forced                                   : No

Audio
ID                                       : 2
Format                                   : DTS
Format/Info                              : Digital Theater Systems
Mode                                     : 16
Format settings, Endianness              : Big
Codec ID                                 : A_DTS
Duration                                 : 1h 38mn
Bit rate mode                            : Constant
Bit rate                                 : 1 509 Kbps
Channel(s)                               : 6 channels
Channel positions                        : Front: L C R, Side: L R, LFE
Sampling rate                            : 48.0 KHz
Bit depth                                : 24 bits
Compression mode                         : Lossy
Stream size                              : 1.04 GiB (10%)
Language                                 : English
Default                                  : Yes
Forced                                   : No

Text #1
ID                                       : 3
Format                                   : UTF-8
Codec ID                                 : S_TEXT/UTF8
Codec ID/Info                            : UTF-8 Plain Text
Language                                 : English
Default                                  : Yes
Forced                                   : No

Text #2
ID                                       : 4
Format                                   : UTF-8
Codec ID                                 : S_TEXT/UTF8
Codec ID/Info                            : UTF-8 Plain Text
Language                                 : Portuguese
Default                                  : No
Forced                                   : No

Menu
00:00:00.000                             : en:00:00:00.000
00:03:35.340                             : en:00:03:35.340
00:07:20.857                             : en:00:07:20.857
00:12:16.778                             : en:00:12:16.778
00:15:22.463                             : en:00:15:22.463
00:19:56.570                             : en:00:19:56.570
00:24:27.466                             : en:00:24:27.466
00:28:09.771                             : en:00:28:09.771
00:34:07.420                             : en:00:34:07.420
00:38:14.000                             : en:00:38:14.000
00:43:04.749                             : en:00:43:04.749
00:46:24.490                             : en:00:46:24.490
00:48:18.813                             : en:00:48:18.813
00:55:12.309                             : en:00:55:12.309
00:59:44.831                             : en:00:59:44.831
01:04:44.047                             : en:01:04:44.047
01:08:43.870                             : en:01:08:43.870
01:12:24.674                             : en:01:12:24.674
01:15:43.247                             : en:01:15:43.247
01:20:08.220                             : en:01:20:08.220
01:23:56.907                             : en:01:23:56.907
01:29:09.344                             : en:01:29:09.344
Ara
Cevapla


Konu ile Alakalı Benzer Konular
Konular Yazar Yorumlar Okunma Son Yorum
  Ben Hur | 2016 | 720p | BluRay | x264 | GECKOS breath-10 0 62 27-11-2016, Saat: 12:44
Son Yorum: breath-10
  The Whole Truth | 2016 | 720p | BluRay | x264 breath-10 0 182 27-11-2016, Saat: 12:34
Son Yorum: breath-10
  Jason Bourne | 2016 | 720p | BluRay | x264 | SPARKS breath-10 0 48 18-11-2016, Saat: 19:47
Son Yorum: breath-10
  Suicide Squad | 2016 | 1080p | WEB-DL | H264 | AC3 | EVO breath-10 0 51 15-11-2016, Saat: 23:34
Son Yorum: breath-10
  Mechanic Resurrection | 2016 | 720p | BluRay | x264 | DD5 1 | HDC breath-10 0 65 10-11-2016, Saat: 21:10
Son Yorum: breath-10

Hızlı Menü:

Hakkımızda
Sitemizde yer alan tüm videolar, filmler kaynak kodları ile Turbobit, Uploaded, Ul.to v.b. dosya paylaşım sitelerinden alınmaktadır. Telif hakları sorumluluğu bu sitelere aittir. Dosyaların hiç biri sunucularımızda bulunmamaktadır. Yine de hak sahiplerinin talep etmesi halinde istenen içerik siteden kaldırılabilir. İletişim adresi sitemizde mevcuttur. İletişim / Contact (Reklam, Dmca, Telif vs):okaan9999@gmail.com
Forum