DivxDepo.NET - Film indir - Dizi indir - Oyun indir
Hoşgeldin, Ziyaretçi: Üye Ol
DivxDepo.Net'e Hoşgeldiniz :)
Umarım Aradığınızı Bulursunuz.İsteklerinizi İletişim Sayfamızdan bildirebilirsiniz.

DivxDepo.Net Önerdiklerimiz
Konuyu Oyla:
  • Toplam: 0 Oy - Ortalama: 0
  • 1
  • 2
  • 3
  • 4
  • 5
Pay the Ghost (2015) 720p WEB-DL DD5.1 H264-RARBG Konuyu Okuyanlar: 1 Ziyaretçi
#1
b41a572af17fa444d2e37f9d42fe5581c991a26f.jpg

Pay.the.Ghost.2015.720p.WEB-DL.DD5.1.H264-RARBG


Kod:
http://uploaded.net/file/7aq8so4n/Pay.the.Ghost.2015.720p.WEB-DL.DD5.1.H264-RARBG.part2.rar
http://uploaded.net/file/a8vpzj8l/Pay.the.Ghost.2015.720p.WEB-DL.DD5.1.H264-RARBG.part3.rar
http://uploaded.net/file/b8naillf/Pay.the.Ghost.2015.720p.WEB-DL.DD5.1.H264-RARBG.part1.rar


Kod:
http://uploadrocket.net/gmvlxxu2r53o/Pay.the.Ghost.2015.720p.WEB-DL.DD5.1.H264-RARBG.part1.rar.html
http://uploadrocket.net/36pru9yy881v/Pay.the.Ghost.2015.720p.WEB-DL.DD5.1.H264-RARBG.part2.rar.html
http://uploadrocket.net/9cz3vmbsvopc/Pay.the.Ghost.2015.720p.WEB-DL.DD5.1.H264-RARBG.part3.rar.html


Kod:
http://rapidgator.net/file/14e4cb72e30fe8d658f63a8defc09f94/Pay.the.Ghost.2015.720p.WEB-DL.DD5.1.H264-RARBG.part2.rar.html
http://rapidgator.net/file/f3f4044136e5e4b050245af60f2921e8/Pay.the.Ghost.2015.720p.WEB-DL.DD5.1.H264-RARBG.part1.rar.html
http://rapidgator.net/file/85b3ddf0d88a7a1d01f2e42b610d9155/Pay.the.Ghost.2015.720p.WEB-DL.DD5.1.H264-RARBG.part3.rar.html


Kod:
http://imdb.com/title/tt3733778/


Pay_the_Ghost_2015_720p_WEB_DL_DD5_1_H264_RARBG.jpg

Kod:
Video
ID                                       : 1
Format                                   : AVC
Format/Info                              : Advanced Video Codec
Format profile                           : Main@L3.1
Format settings, CABAC                   : No
Format settings, ReFrames                : 2 frames
Codec ID                                 : V_MPEG4/ISO/AVC
Duration                                 : 1h 34mn
Bit rate                                 : 3 819 Kbps
Width                                    : 1 280 pixels
Height                                   : 530 pixels
Display aspect ratio                     : 2.40:1
Frame rate mode                          : Constant
Frame rate                               : 23.976 fps
Color space                              : YUV
Chroma subsampling                       : 4:2:0
Bit depth                                : 8 bits
Scan type                                : Progressive
Bits/(Pixel*Frame)                       : 0.235
Stream size                              : 2.51 GiB (89%)
Title                                    : Pay.the.Ghost.2015.720p.WEB-DL.DD5.1.H264-RARBG
Language                                 : English
Default                                  : Yes
Forced                                   : No
Color range                              : Limited
Color primaries                          : BT.709
Transfer characteristics                 : BT.709
Matrix coefficients                      : BT.709

Audio
ID                                       : 2
Format                                   : AC-3
Format/Info                              : Audio Coding 3
Mode extension                           : CM (complete main)
Format settings, Endianness              : Big
Codec ID                                 : A_AC3
Duration                                 : 1h 34mn
Bit rate mode                            : Constant
Bit rate                                 : 384 Kbps
Channel(s)                               : 6 channels
Channel positions                        : Front: L C R, Side: L R, LFE
Sampling rate                            : 48.0 KHz
Compression mode                         : Lossy
Stream size                              : 258 MiB (9%)
Title                                    : Pay.the.Ghost.2015.720p.WEB-DL.DD5.1.H264-RARBG
Language                                 : English
Default                                  : Yes
Forced                                   : No

Text
ID                                       : 3
Format                                   : UTF-8
Codec ID                                 : S_TEXT/UTF8
Codec ID/Info                            : UTF-8 Plain Text
Language                                 : English
Default                                  : No
Forced                                   : No
193298_o0025.png
Ara
Cevapla


Konu ile Alakalı Benzer Konular
Konular Yazar Yorumlar Okunma Son Yorum
  Suicide Squad | 2016 | 1080p | WEB-DL | H264 | AC3 | EVO breath-10 0 49 15-11-2016, Saat: 23:34
Son Yorum: breath-10
  Bridget Jones Baby | 2016 | 720p | WEB-DL | H264 | AC3 | EVO breath-10 0 27 10-11-2016, Saat: 21:10
Son Yorum: breath-10
  Mechanic Resurrection | 2016 | 720p | WEB-DL | H264 | AC3 | EVO breath-10 0 102 08-11-2016, Saat: 15:22
Son Yorum: breath-10
  Jason Bourne | 2016 | 720p | WEB-DL | H264 | AC3 | EVO breath-10 0 48 03-11-2016, Saat: 23:05
Son Yorum: breath-10
  Central Intelligence | 2016 | 720p | WEB-DL | H264 | AC3 | EVO breath-10 0 89 03-09-2016, Saat: 15:53
Son Yorum: breath-10

Hızlı Menü:

Hakkımızda
Sitemizde yer alan tüm videolar, filmler kaynak kodları ile Turbobit, Uploaded, Ul.to v.b. dosya paylaşım sitelerinden alınmaktadır. Telif hakları sorumluluğu bu sitelere aittir. Dosyaların hiç biri sunucularımızda bulunmamaktadır. Yine de hak sahiplerinin talep etmesi halinde istenen içerik siteden kaldırılabilir. İletişim adresi sitemizde mevcuttur. İletişim / Contact (Reklam, Dmca, Telif vs):okaan9999@gmail.com
Forum