DivxDepo.NET - Film indir - Dizi indir - Oyun indir
Hoşgeldin, Ziyaretçi: Üye Ol
DivxDepo.Net'e Hoşgeldiniz :)
Umarım Aradığınızı Bulursunuz.İsteklerinizi İletişim Sayfamızdan bildirebilirsiniz.

DivxDepo.Net Önerdiklerimiz
Konuyu Oyla:
  • Toplam: 0 Oy - Ortalama: 0
  • 1
  • 2
  • 3
  • 4
  • 5
Natural Born Killers (1994) DC 1080p BluRay x264 DTS-FGT Konuyu Okuyanlar: 1 Ziyaretçi
#1
Natural_Born_Killers_1994_DC_1080p_Blu_Ray_x264_D.png

Natural.Born.Killers.1994.DC.1080p.BluRay.x264.DTS-FGT


Kod:
http://uploaded.net/file/s8neqnqp/Natural.Born.Killers.1994.DC.1080p.BluRay.x264.DTS-FGT.part12.rar
http://uploaded.net/file/5iouees9/Natural.Born.Killers.1994.DC.1080p.BluRay.x264.DTS-FGT.part07.rar
http://uploaded.net/file/ee1a1ft1/Natural.Born.Killers.1994.DC.1080p.BluRay.x264.DTS-FGT.part14.rar
http://uploaded.net/file/usk3y9bj/Natural.Born.Killers.1994.DC.1080p.BluRay.x264.DTS-FGT.part02.rar
http://uploaded.net/file/ujeniivg/Natural.Born.Killers.1994.DC.1080p.BluRay.x264.DTS-FGT.part06.rar
http://uploaded.net/file/a8wrw1i8/Natural.Born.Killers.1994.DC.1080p.BluRay.x264.DTS-FGT.part03.rar
http://uploaded.net/file/9xy57n5c/Natural.Born.Killers.1994.DC.1080p.BluRay.x264.DTS-FGT.part09.rar
http://uploaded.net/file/mnxzzqmb/Natural.Born.Killers.1994.DC.1080p.BluRay.x264.DTS-FGT.part04.rar
http://uploaded.net/file/70yd1md3/Natural.Born.Killers.1994.DC.1080p.BluRay.x264.DTS-FGT.part11.rar
http://uploaded.net/file/uwfy3g0z/Natural.Born.Killers.1994.DC.1080p.BluRay.x264.DTS-FGT.part01.rar
http://uploaded.net/file/ckw1u2vj/Natural.Born.Killers.1994.DC.1080p.BluRay.x264.DTS-FGT.part05.rar
http://uploaded.net/file/hs7mhz6g/Natural.Born.Killers.1994.DC.1080p.BluRay.x264.DTS-FGT.part08.rar
http://uploaded.net/file/l0ht2j6r/Natural.Born.Killers.1994.DC.1080p.BluRay.x264.DTS-FGT.part13.rar
http://uploaded.net/file/m1o5t4gz/Natural.Born.Killers.1994.DC.1080p.BluRay.x264.DTS-FGT.part10.rar
http://uploaded.net/file/bhrq4xev/Natural.Born.Killers.1994.DC.1080p.BluRay.x264.DTS-FGT.part15.rar


Kod:
http://uploadrocket.net/exi1enb54wtj/Natural.Born.Killers.1994.DC.1080p.BluRay.x264.DTS-FGT.part01.rar.html
http://uploadrocket.net/pm38aakbtvxl/Natural.Born.Killers.1994.DC.1080p.BluRay.x264.DTS-FGT.part02.rar.html
http://uploadrocket.net/pob73zcaizpn/Natural.Born.Killers.1994.DC.1080p.BluRay.x264.DTS-FGT.part03.rar.html
http://uploadrocket.net/3gquhuwu54py/Natural.Born.Killers.1994.DC.1080p.BluRay.x264.DTS-FGT.part04.rar.html
http://uploadrocket.net/atlqn3b6bq3o/Natural.Born.Killers.1994.DC.1080p.BluRay.x264.DTS-FGT.part05.rar.html
http://uploadrocket.net/rs8iypd1vamd/Natural.Born.Killers.1994.DC.1080p.BluRay.x264.DTS-FGT.part06.rar.html
http://uploadrocket.net/gw6wtgvp7f8t/Natural.Born.Killers.1994.DC.1080p.BluRay.x264.DTS-FGT.part07.rar.html
http://uploadrocket.net/pmnsjvtggb4y/Natural.Born.Killers.1994.DC.1080p.BluRay.x264.DTS-FGT.part08.rar.html
http://uploadrocket.net/wb3odv4vru8a/Natural.Born.Killers.1994.DC.1080p.BluRay.x264.DTS-FGT.part09.rar.html
http://uploadrocket.net/tslcr15zyptf/Natural.Born.Killers.1994.DC.1080p.BluRay.x264.DTS-FGT.part10.rar.html
http://uploadrocket.net/d4i38h7aynfl/Natural.Born.Killers.1994.DC.1080p.BluRay.x264.DTS-FGT.part11.rar.html
http://uploadrocket.net/wqvctgpx335k/Natural.Born.Killers.1994.DC.1080p.BluRay.x264.DTS-FGT.part12.rar.html
http://uploadrocket.net/q6j7xrrbvag7/Natural.Born.Killers.1994.DC.1080p.BluRay.x264.DTS-FGT.part13.rar.html
http://uploadrocket.net/4cy0x36d9fql/Natural.Born.Killers.1994.DC.1080p.BluRay.x264.DTS-FGT.part14.rar.html
http://uploadrocket.net/yidz43s2pwzr/Natural.Born.Killers.1994.DC.1080p.BluRay.x264.DTS-FGT.part15.rar.html


Kod:
http://rapidgator.net/file/131c7b492692bc7d0888f390046796f0/Natural.Born.Killers.1994.DC.1080p.BluRay.x264.DTS-FGT.part02.rar.html
http://rapidgator.net/file/995c9d9f8114575b122160082a3d96a5/Natural.Born.Killers.1994.DC.1080p.BluRay.x264.DTS-FGT.part03.rar.html
http://rapidgator.net/file/ad74cbe0750e75190e056930669e0e6d/Natural.Born.Killers.1994.DC.1080p.BluRay.x264.DTS-FGT.part07.rar.html
http://rapidgator.net/file/3dd23b0b5cddb6eefc3c5551327ad07e/Natural.Born.Killers.1994.DC.1080p.BluRay.x264.DTS-FGT.part06.rar.html
http://rapidgator.net/file/8e8a446c9a93ae0bbea69d7549131b45/Natural.Born.Killers.1994.DC.1080p.BluRay.x264.DTS-FGT.part01.rar.html
http://rapidgator.net/file/29ea991bdd9dab6cbcabb7e70d21e1cd/Natural.Born.Killers.1994.DC.1080p.BluRay.x264.DTS-FGT.part04.rar.html
http://rapidgator.net/file/6baa45add80f27b40dc40a6c0f81dedb/Natural.Born.Killers.1994.DC.1080p.BluRay.x264.DTS-FGT.part05.rar.html
http://rapidgator.net/file/28a51aaae6901dd736b1e1f64a1e4744/Natural.Born.Killers.1994.DC.1080p.BluRay.x264.DTS-FGT.part11.rar.html
http://rapidgator.net/file/2b972de710ce00f64d00e234e7e9d52b/Natural.Born.Killers.1994.DC.1080p.BluRay.x264.DTS-FGT.part08.rar.html
http://rapidgator.net/file/b2096d154079345bc95ca29e040f099e/Natural.Born.Killers.1994.DC.1080p.BluRay.x264.DTS-FGT.part10.rar.html
http://rapidgator.net/file/719fef4b3890253b6717720dfaf49efb/Natural.Born.Killers.1994.DC.1080p.BluRay.x264.DTS-FGT.part12.rar.html
http://rapidgator.net/file/4996a50be8488d57f13cca9f6e66e2a5/Natural.Born.Killers.1994.DC.1080p.BluRay.x264.DTS-FGT.part14.rar.html
http://rapidgator.net/file/7e085a5d63aacc3e7392194be219a601/Natural.Born.Killers.1994.DC.1080p.BluRay.x264.DTS-FGT.part09.rar.html
http://rapidgator.net/file/c05084107b3e0888d340e986163218f5/Natural.Born.Killers.1994.DC.1080p.BluRay.x264.DTS-FGT.part13.rar.html
http://rapidgator.net/file/923a35b6e5289a6a5b93dab5b2707da7/Natural.Born.Killers.1994.DC.1080p.BluRay.x264.DTS-FGT.part15.rar.html


Kod:
http://imdb.com/title/tt0110632/


Natural_Born_Killers_1994_DC_1080p_Blu_Ray_x264_D.jpg

Kod:
Video
ID                                       : 1
Format                                   : AVC
Format/Info                              : Advanced Video Codec
Format profile                           : High@L4.1
Format settings, CABAC                   : Yes
Format settings, ReFrames                : 4 frames
Codec ID                                 : V_MPEG4/ISO/AVC
Duration                                 : 2h 2mn
Bit rate                                 : 14.9 Mbps
Width                                    : 1 920 pixels
Height                                   : 1 080 pixels
Display aspect ratio                     : 16:9
Frame rate mode                          : Constant
Frame rate                               : 23.976 fps
Color space                              : YUV
Chroma subsampling                       : 4:2:0
Bit depth                                : 8 bits
Scan type                                : Progressive
Bits/(Pixel*Frame)                       : 0.300
Stream size                              : 12.4 GiB (89%)
Writing library                          : x264 core 146 r2538 121396c
Encoding settings                        : cabac=1 / ref=4 / deblock=1:-2:-2 / analyse=0x3:0x113 / me=umh / subme=10 / psy=1 / psy_rd=1.10:0.02 / mixed_ref=1 / me_range=48 / chroma_me=1 / trellis=2 / 8x8dct=1 / cqm=0 / deadzone=21,11 / fast_pskip=1 / chroma_qp_offset=-3 / threads=7 / lookahead_threads=1 / sliced_threads=0 / nr=0 / decimate=1 / interlaced=0 / bluray_compat=0 / constrained_intra=0 / bframes=8 / b_pyramid=2 / b_adapt=2 / b_bias=0 / direct=1 / weightb=1 / open_gop=0 / weightp=2 / keyint=240 / keyint_min=23 / scenecut=40 / intra_refresh=0 / rc_lookahead=125 / rc=2pass / mbtree=1 / bitrate=14928 / ratetol=1.0 / qcomp=0.60 / qpmin=0 / qpmax=69 / qpstep=4 / cplxblur=20.0 / qblur=0.5 / vbv_maxrate=30000 / vbv_bufsize=38000 / nal_hrd=none / filler=0 / ip_ratio=1.40 / aq=3:0.85
Language                                 : English
Default                                  : Yes
Forced                                   : No
Color range                              : Limited
Color primaries                          : BT.709
Transfer characteristics                 : BT.709
Matrix coefficients                      : BT.709

Audio
ID                                       : 2
Format                                   : DTS
Format/Info                              : Digital Theater Systems
Mode                                     : 16
Format settings, Endianness              : Big
Codec ID                                 : A_DTS
Duration                                 : 2h 2mn
Bit rate mode                            : Constant
Bit rate                                 : 1 509 Kbps
Channel(s)                               : 6 channels
Channel positions                        : Front: L C R, Side: L R, LFE
Sampling rate                            : 48.0 KHz
Bit depth                                : 16 bits
Compression mode                         : Lossy
Stream size                              : 1.29 GiB (9%)
Language                                 : English
Default                                  : Yes
Forced                                   : No

Text
ID                                       : 3
Format                                   : PGS
Muxing mode                              : zlib
Codec ID                                 : S_HDMV/PGS
Codec ID/Info                            : Picture based subtitle format used on BDs/HD-DVDs
Language                                 : English
Default                                  : No
Forced                                   : No
193298_o0025.png
Ara
Cevapla


Konu ile Alakalı Benzer Konular
Konular Yazar Yorumlar Okunma Son Yorum
yeni Doctor Strange | 2016 | 720p | BluRay | x264 | SPARKS breath-10 0 204 15-02-2017, Saat: 17:48
Son Yorum: breath-10
yeni Allied | 2016 | 720p | BluRay | x264 | SPARKS breath-10 0 78 15-02-2017, Saat: 17:47
Son Yorum: breath-10
yeni Nocturnal Animals | 2016 | 720p | BluRay | x264 | DTS | HDC breath-10 0 100 10-02-2017, Saat: 20:16
Son Yorum: breath-10
yeni Arrival | 2016 | 720p | BluRay | x264 | SPARKS breath-10 0 334 01-02-2017, Saat: 20:05
Son Yorum: breath-10
yeni Billy Lynns Long Halftime Walk | 2016 | 720p | BluRay | x264 | GECKOS breath-10 0 110 01-02-2017, Saat: 20:04
Son Yorum: breath-10

Hızlı Menü:

Hakkımızda
Sitemizde yer alan tüm videolar, filmler kaynak kodları ile Turbobit, Uploaded, Ul.to v.b. dosya paylaşım sitelerinden alınmaktadır. Telif hakları sorumluluğu bu sitelere aittir. Dosyaların hiç biri sunucularımızda bulunmamaktadır. Yine de hak sahiplerinin talep etmesi halinde istenen içerik siteden kaldırılabilir. İletişim adresi sitemizde mevcuttur. İletişim / Contact (Reklam, Dmca, Telif vs):okaan9999@gmail.com
Forum