DivxDepo.NET - Film indir - Dizi indir - Oyun indir
Hoşgeldin, Ziyaretçi: Üye Ol
DivxDepo.Net'e Hoşgeldiniz :)
Umarım Aradığınızı Bulursunuz.İsteklerinizi İletişim Sayfamızdan bildirebilirsiniz.

DivxDepo.Net Önerdiklerimiz
Konuyu Oyla:
  • Toplam: 0 Oy - Ortalama: 0
  • 1
  • 2
  • 3
  • 4
  • 5
Mr Woodcock (2007) 1080p BluRay x264 DTS-FGT Konuyu Okuyanlar: 1 Ziyaretçi
#1
Mr_Woodcock_2007_1080p_Blu_Ray_x264_DTS_FGT.png

Mr.Woodcock.2007.1080p.BluRay.x264.DTS-FGT


Kod:
http://uploaded.net/file/82iewd5j/Mr.Woodcock.2007.1080p.BluRay.x264.DTS-FGT.part3.rar
http://uploaded.net/file/1g9rfs00/Mr.Woodcock.2007.1080p.BluRay.x264.DTS-FGT.part2.rar
http://uploaded.net/file/gfzevo75/Mr.Woodcock.2007.1080p.BluRay.x264.DTS-FGT.part4.rar
http://uploaded.net/file/e474dvs0/Mr.Woodcock.2007.1080p.BluRay.x264.DTS-FGT.part1.rar


Kod:
http://rapidgator.net/file/40fef6ab62895d9ea64ff174137f080f/Mr.Woodcock.2007.1080p.BluRay.x264.DTS-FGT.part4.rar.html
http://rapidgator.net/file/0f4f421236b1d0d7a6384f13a320b87b/Mr.Woodcock.2007.1080p.BluRay.x264.DTS-FGT.part2.rar.html
http://rapidgator.net/file/c9a597242f6ca456161c9a9790bbcfdc/Mr.Woodcock.2007.1080p.BluRay.x264.DTS-FGT.part1.rar.html
http://rapidgator.net/file/823a423cebc4ebb98791fda69a2a3319/Mr.Woodcock.2007.1080p.BluRay.x264.DTS-FGT.part3.rar.html


Kod:
http://imdb.com/title/tt0419984/


76469564032932930583_thumb.png
31019377567229382355_thumb.png
16869985944229441554_thumb.png
87041040590985224434_thumb.png
57279450968435306574_thumb.png
52917940218406957550_thumb.png

Kod:
Video
ID                                       : 1
Format                                   : AVC
Format/Info                              : Advanced Video Codec
Format profile                           : High@L4.1
Format settings, CABAC                   : Yes
Format settings, ReFrames                : 5 frames
Format settings, GOP                     : N=1
Codec ID                                 : V_MPEG4/ISO/AVC
Duration                                 : 1h 27mn
Bit rate                                 : 11.0 Mbps
Width                                    : 1 920 pixels
Height                                   : 800 pixels
Display aspect ratio                     : 2.40:1
Frame rate mode                          : Constant
Frame rate                               : 23.976 fps
Color space                              : YUV
Chroma subsampling                       : 4:2:0
Bit depth                                : 8 bits
Scan type                                : Progressive
Bits/(Pixel*Frame)                       : 0.299
Stream size                              : 6.59 GiB (86%)
Writing library                          : x264 core 58 r757M 4d9499b
Encoding settings                        : cabac=1 / ref=5 / deblock=1:-3:-3 / analyse=0x3:0x113 / me=umh / subme=7 / me-prepass=0 / brdo=1 / mixed_ref=1 / me_range=16 / chroma_me=1 / trellis=1 / 8x8dct=1 / cqm=2 / deadzone=21,11 / chroma_qp_offset=0 / threads=6 / nr=0 / decimate=1 / mbaff=0 / bframes=3 / b_pyramid=1 / b_adapt=1 / b_bias=0 / direct=3 / wpredb=1 / bime=1 / keyint=250 / keyint_min=25 / scenecut=40(pre) / rc=2pass / bitrate=11012 / ratetol=1.0 / rceq='blurCplx^(1-qComp)' / qcomp=1.00 / qpmin=10 / qpmax=51 / qpstep=4 / cplxblur=20.0 / qblur=0.5 / ip_ratio=1.40 / pb_ratio=1.30 / aq=1:0.5:13.0
Language                                 : English
Default                                  : Yes
Forced                                   : No

Audio
ID                                       : 2
Format                                   : DTS
Format/Info                              : Digital Theater Systems
Mode                                     : 16
Format settings, Endianness              : Big
Codec ID                                 : A_DTS
Duration                                 : 1h 27mn
Bit rate mode                            : Constant
Bit rate                                 : 1 510 Kbps
Channel(s)                               : 6 channels
Channel positions                        : Front: L C R, Side: L R, LFE
Sampling rate                            : 48.0 KHz
Bit depth                                : 24 bits
Compression mode                         : Lossy
Stream size                              : 946 MiB (12%)
Language                                 : English
Default                                  : Yes
Forced                                   : No
Ara
Cevapla


Konu ile Alakalı Benzer Konular
Konular Yazar Yorumlar Okunma Son Yorum
  Ben Hur | 2016 | 720p | BluRay | x264 | GECKOS breath-10 0 27 27-11-2016, Saat: 12:44
Son Yorum: breath-10
  The Whole Truth | 2016 | 720p | BluRay | x264 breath-10 0 170 27-11-2016, Saat: 12:34
Son Yorum: breath-10
  Jason Bourne | 2016 | 720p | BluRay | x264 | SPARKS breath-10 0 33 18-11-2016, Saat: 19:47
Son Yorum: breath-10
  Suicide Squad | 2016 | 1080p | WEB-DL | H264 | AC3 | EVO breath-10 0 37 15-11-2016, Saat: 23:34
Son Yorum: breath-10
  Mechanic Resurrection | 2016 | 720p | BluRay | x264 | DD5 1 | HDC breath-10 0 54 10-11-2016, Saat: 21:10
Son Yorum: breath-10

Hızlı Menü:

Hakkımızda
Sitemizde yer alan tüm videolar, filmler kaynak kodları ile Turbobit, Uploaded, Ul.to v.b. dosya paylaşım sitelerinden alınmaktadır. Telif hakları sorumluluğu bu sitelere aittir. Dosyaların hiç biri sunucularımızda bulunmamaktadır. Yine de hak sahiplerinin talep etmesi halinde istenen içerik siteden kaldırılabilir. İletişim adresi sitemizde mevcuttur. İletişim / Contact (Reklam, Dmca, Telif vs):okaan9999@gmail.com
Forum