DivxDepo.NET - Film indir - Dizi indir - Oyun indir
Hoşgeldin, Ziyaretçi: Üye Ol
DivxDepo.Net'e Hoşgeldiniz :)
Umarım Aradığınızı Bulursunuz.İsteklerinizi İletişim Sayfamızdan bildirebilirsiniz.

DivxDepo.Net Önerdiklerimiz
Konuyu Oyla:
  • Toplam: 0 Oy - Ortalama: 0
  • 1
  • 2
  • 3
  • 4
  • 5
Lincoln (2012) International Version 1080p BluRay x264-VeDeTT Konuyu Okuyanlar: 1 Ziyaretçi
#1
Lincoln_2012_International_Version_1080p_Blu_Ray.png

Lincoln.2012.International.Version.1080p.BluRay.x264-VeDeTT

Kod:
http://uploaded.net/file/lr5z4zyy/Lincoln.2012.International.Version.1080p.BluRay.x264-VeDeTT.part02.rar
http://uploaded.net/file/t8pttlkm/Lincoln.2012.International.Version.1080p.BluRay.x264-VeDeTT.part04.rar
http://uploaded.net/file/n8womvjd/Lincoln.2012.International.Version.1080p.BluRay.x264-VeDeTT.part06.rar
http://uploaded.net/file/dhk6cvu4/Lincoln.2012.International.Version.1080p.BluRay.x264-VeDeTT.part05.rar
http://uploaded.net/file/y6ulwgdj/Lincoln.2012.International.Version.1080p.BluRay.x264-VeDeTT.part03.rar
http://uploaded.net/file/188nsckr/Lincoln.2012.International.Version.1080p.BluRay.x264-VeDeTT.part01.rar
http://uploaded.net/file/4ah5p0ze/Lincoln.2012.International.Version.1080p.BluRay.x264-VeDeTT.part10.rar
http://uploaded.net/file/b8hnmwyy/Lincoln.2012.International.Version.1080p.BluRay.x264-VeDeTT.part11.rar
http://uploaded.net/file/qc79zg1c/Lincoln.2012.International.Version.1080p.BluRay.x264-VeDeTT.part09.rar
http://uploaded.net/file/yobhtw7s/Lincoln.2012.International.Version.1080p.BluRay.x264-VeDeTT.part08.rar
http://uploaded.net/file/vdpzrals/Lincoln.2012.International.Version.1080p.BluRay.x264-VeDeTT.part07.rar
http://uploaded.net/file/bb9xtv3v/Lincoln.2012.International.Version.1080p.BluRay.x264-VeDeTT.part12.rar

Kod:
http://uploadrocket.net/0md95h4a4ytm/Lincoln.2012.International.Version.1080p.BluRay.x264-VeDeTT.part01.rar.html
http://uploadrocket.net/vdawndz04ilo/Lincoln.2012.International.Version.1080p.BluRay.x264-VeDeTT.part02.rar.html
http://uploadrocket.net/gf63g9gmm2tp/Lincoln.2012.International.Version.1080p.BluRay.x264-VeDeTT.part03.rar.html
http://uploadrocket.net/l37g4f879oj1/Lincoln.2012.International.Version.1080p.BluRay.x264-VeDeTT.part04.rar.html
http://uploadrocket.net/zusi1pc7dspj/Lincoln.2012.International.Version.1080p.BluRay.x264-VeDeTT.part05.rar.html
http://uploadrocket.net/w3rw16oj0k5r/Lincoln.2012.International.Version.1080p.BluRay.x264-VeDeTT.part06.rar.html
http://uploadrocket.net/5j526uukzvwn/Lincoln.2012.International.Version.1080p.BluRay.x264-VeDeTT.part07.rar.html
http://uploadrocket.net/qxiubzodagrc/Lincoln.2012.International.Version.1080p.BluRay.x264-VeDeTT.part08.rar.html
http://uploadrocket.net/tmhye6x8g1p6/Lincoln.2012.International.Version.1080p.BluRay.x264-VeDeTT.part09.rar.html
http://uploadrocket.net/02e1y9y64913/Lincoln.2012.International.Version.1080p.BluRay.x264-VeDeTT.part10.rar.html
http://uploadrocket.net/5u9pr4op9cba/Lincoln.2012.International.Version.1080p.BluRay.x264-VeDeTT.part11.rar.html
http://uploadrocket.net/pyzkd4y8jguc/Lincoln.2012.International.Version.1080p.BluRay.x264-VeDeTT.part12.rar.html

Kod:
http://imdb.com/title/tt0443272/

79838990661923006027_thumb.png
27890099186564860299_thumb.png
91134877140624626931_thumb.png
22620536096386425903_thumb.png
43981366333450478663_thumb.png

Kod:
Video
ID                                       : 1
Format                                   : AVC
Format/Info                              : Advanced Video Codec
Format profile                           : High@L4.1
Format settings, CABAC                   : Yes
Format settings, ReFrames                : 5 frames
Codec ID                                 : V_MPEG4/ISO/AVC
Duration                                 : 2h 30mn
Bit rate                                 : 8 878 Kbps
Width                                    : 1 920 pixels
Height                                   : 800 pixels
Display aspect ratio                     : 2.40:1
Frame rate mode                          : Constant
Frame rate                               : 23.976 fps
Color space                              : YUV
Chroma subsampling                       : 4:2:0
Bit depth                                : 8 bits
Scan type                                : Progressive
Bits/(Pixel*Frame)                       : 0.241
Stream size                              : 9.12 GiB (83%)
Writing library                          : x264 core 133 r2334 a3ac64b
Encoding settings                        : cabac=1 / ref=5 / deblock=1:0:0 / analyse=0x3:0x133 / me=umh / subme=7 / psy=1 / psy_rd=1.00:0.00 / mixed_ref=1 / me_range=16 / chroma_me=1 / trellis=1 / 8x8dct=1 / cqm=0 / deadzone=21,11 / fast_pskip=0 / chroma_qp_offset=-2 / threads=6 / lookahead_threads=1 / sliced_threads=0 / nr=0 / decimate=1 / interlaced=0 / bluray_compat=0 / constrained_intra=0 / bframes=3 / b_pyramid=2 / b_adapt=2 / b_bias=0 / direct=3 / weightb=1 / open_gop=0 / weightp=2 / keyint=250 / keyint_min=23 / scenecut=40 / intra_refresh=0 / rc_lookahead=50 / rc=2pass / mbtree=1 / bitrate=8878 / ratetol=1.0 / qcomp=0.60 / qpmin=0 / qpmax=69 / qpstep=4 / cplxblur=20.0 / qblur=0.5 / ip_ratio=1.40 / aq=1:1.00
Language                                 : English
Default                                  : Yes
Forced                                   : Yes

Audio
ID                                       : 2
Format                                   : DTS
Format/Info                              : Digital Theater Systems
Format profile                           : ES
Mode                                     : 16
Format settings, Endianness              : Big
Codec ID                                 : A_DTS
Duration                                 : 2h 30mn
Bit rate mode                            : Constant
Bit rate                                 : 1 509 Kbps
Channel(s)                               : 6 channels
Channel positions                        : Front: L C R, Side: L R, LFE
Sampling rate                            : 48.0 KHz
Bit depth                                : 24 bits
Compression mode                         : Lossy
Stream size                              : 1.59 GiB (15%)
Language                                 : English
Default                                  : Yes
Forced                                   : Yes
Ara
Cevapla


Konu ile Alakalı Benzer Konular
Konular Yazar Yorumlar Okunma Son Yorum
  Ben Hur | 2016 | 720p | BluRay | x264 | GECKOS breath-10 0 53 27-11-2016, Saat: 12:44
Son Yorum: breath-10
  The Whole Truth | 2016 | 720p | BluRay | x264 breath-10 0 174 27-11-2016, Saat: 12:34
Son Yorum: breath-10
  Jason Bourne | 2016 | 720p | BluRay | x264 | SPARKS breath-10 0 38 18-11-2016, Saat: 19:47
Son Yorum: breath-10
  Suicide Squad | 2016 | 1080p | WEB-DL | H264 | AC3 | EVO breath-10 0 40 15-11-2016, Saat: 23:34
Son Yorum: breath-10
  Mechanic Resurrection | 2016 | 720p | BluRay | x264 | DD5 1 | HDC breath-10 0 58 10-11-2016, Saat: 21:10
Son Yorum: breath-10

Hızlı Menü:

Hakkımızda
Sitemizde yer alan tüm videolar, filmler kaynak kodları ile Turbobit, Uploaded, Ul.to v.b. dosya paylaşım sitelerinden alınmaktadır. Telif hakları sorumluluğu bu sitelere aittir. Dosyaların hiç biri sunucularımızda bulunmamaktadır. Yine de hak sahiplerinin talep etmesi halinde istenen içerik siteden kaldırılabilir. İletişim adresi sitemizde mevcuttur. İletişim / Contact (Reklam, Dmca, Telif vs):okaan9999@gmail.com
Forum