DivxDepo.NET - Film indir - Dizi indir - Oyun indir
Hoşgeldin, Ziyaretçi: Üye Ol
DivxDepo.Net'e Hoşgeldiniz :)
Umarım Aradığınızı Bulursunuz.İsteklerinizi İletişim Sayfamızdan bildirebilirsiniz.

DivxDepo.Net Önerdiklerimiz
Konuyu Oyla:
  • Toplam: 0 Oy - Ortalama: 0
  • 1
  • 2
  • 3
  • 4
  • 5
Licence to Kill (1989) 1080p BluRay x264-BestHD Konuyu Okuyanlar: 1 Ziyaretçi
#1
Licence_to_Kill_1989_1080p_Blu_Ray_x264_Best_HD.png

Licence.to.Kill.1989.1080p.BluRay.x264-BestHD

Kod:
http://uploaded.net/file/rwl79jtt/Licence.to.Kill.1989.1080p.BluRay.x264-BestHD.part07.rar
http://uploaded.net/file/niwi6dqy/Licence.to.Kill.1989.1080p.BluRay.x264-BestHD.part08.rar
http://uploaded.net/file/o0r1dyw2/Licence.to.Kill.1989.1080p.BluRay.x264-BestHD.part01.rar
http://uploaded.net/file/tnkjmt8m/Licence.to.Kill.1989.1080p.BluRay.x264-BestHD.part06.rar
http://uploaded.net/file/zj0edv7q/Licence.to.Kill.1989.1080p.BluRay.x264-BestHD.part09.rar
http://uploaded.net/file/wytvypkn/Licence.to.Kill.1989.1080p.BluRay.x264-BestHD.part11.rar
http://uploaded.net/file/k3b2f0ja/Licence.to.Kill.1989.1080p.BluRay.x264-BestHD.part04.rar
http://uploaded.net/file/0nso66ob/Licence.to.Kill.1989.1080p.BluRay.x264-BestHD.part03.rar
http://uploaded.net/file/bbobzzrh/Licence.to.Kill.1989.1080p.BluRay.x264-BestHD.part02.rar
http://uploaded.net/file/tarhw8wk/Licence.to.Kill.1989.1080p.BluRay.x264-BestHD.part05.rar
http://uploaded.net/file/6dbhkg2y/Licence.to.Kill.1989.1080p.BluRay.x264-BestHD.part10.rar
http://uploaded.net/file/080xturx/Licence.to.Kill.1989.1080p.BluRay.x264-BestHD.part12.rar

Kod:
http://uploadrocket.net/uwpc1cqoeahv/Licence.to.Kill.1989.1080p.BluRay.x264-BestHD.part01.rar.html
http://uploadrocket.net/rflvytt8ugwd/Licence.to.Kill.1989.1080p.BluRay.x264-BestHD.part02.rar.html
http://uploadrocket.net/c7xul41kb59f/Licence.to.Kill.1989.1080p.BluRay.x264-BestHD.part03.rar.html
http://uploadrocket.net/y6qwqrs4xe70/Licence.to.Kill.1989.1080p.BluRay.x264-BestHD.part04.rar.html
http://uploadrocket.net/z4u8reftenni/Licence.to.Kill.1989.1080p.BluRay.x264-BestHD.part05.rar.html
http://uploadrocket.net/8nnalfrex7xo/Licence.to.Kill.1989.1080p.BluRay.x264-BestHD.part06.rar.html
http://uploadrocket.net/dewv8a20cxxm/Licence.to.Kill.1989.1080p.BluRay.x264-BestHD.part07.rar.html
http://uploadrocket.net/5dqv6co3lx6e/Licence.to.Kill.1989.1080p.BluRay.x264-BestHD.part08.rar.html
http://uploadrocket.net/bcsxp47ebnbf/Licence.to.Kill.1989.1080p.BluRay.x264-BestHD.part09.rar.html
http://uploadrocket.net/7ar3fmyo0s72/Licence.to.Kill.1989.1080p.BluRay.x264-BestHD.part10.rar.html
http://uploadrocket.net/yb0mfngz82b4/Licence.to.Kill.1989.1080p.BluRay.x264-BestHD.part11.rar.html
http://uploadrocket.net/33yhmvnfn9zb/Licence.to.Kill.1989.1080p.BluRay.x264-BestHD.part12.rar.html

Kod:
http://imdb.com/title/tt0097742/

94548595321022692469_thumb.png
86585529375249538217_thumb.png
21622944995989994766_thumb.png
57015361109579319542_thumb.png
73952274573272993228_thumb.png

Kod:
Video
ID                                       : 1
Format                                   : AVC
Format/Info                              : Advanced Video Codec
Format profile                           : High@L4.1
Format settings, CABAC                   : Yes
Format settings, ReFrames                : 5 frames
Codec ID                                 : V_MPEG4/ISO/AVC
Duration                                 : 2h 13mn
Bit rate                                 : 10.2 Mbps
Width                                    : 1 920 pixels
Height                                   : 816 pixels
Display aspect ratio                     : 2.35:1
Frame rate mode                          : Constant
Frame rate                               : 23.976 fps
Color space                              : YUV
Chroma subsampling                       : 4:2:0
Bit depth                                : 8 bits
Scan type                                : Progressive
Bits/(Pixel*Frame)                       : 0.272
Stream size                              : 9.31 GiB (85%)
Writing library                          : x264 core 67 r1128 682b54d
Encoding settings                        : cabac=1 / ref=5 / deblock=1:0:0 / analyse=0x3:0x113 / me=umh / subme=7 / psy_rd=1.0:0.0 / mixed_ref=1 / me_range=16 / chroma_me=1 / trellis=1 / 8x8dct=1 / cqm=0 / deadzone=21,11 / chroma_qp_offset=-2 / threads=12 / nr=0 / decimate=1 / mbaff=0 / bframes=3 / b_pyramid=1 / b_adapt=1 / b_bias=0 / direct=3 / wpredb=1 / keyint=250 / keyint_min=25 / scenecut=40 / rc=2pass / bitrate=10229 / ratetol=1.0 / qcomp=0.60 / qpmin=10 / qpmax=51 / qpstep=4 / cplxblur=20.0 / qblur=0.5 / ip_ratio=1.40 / pb_ratio=1.30 / aq=1:1.00
Language                                 : English
Default                                  : Yes
Forced                                   : No

Audio
ID                                       : 2
Format                                   : DTS
Format/Info                              : Digital Theater Systems
Mode                                     : 16
Format settings, Endianness              : Big
Codec ID                                 : A_DTS
Duration                                 : 2h 13mn
Bit rate mode                            : Constant
Bit rate                                 : 1 509 Kbps
Channel(s)                               : 6 channels
Channel positions                        : Front: L C R, Side: L R, LFE
Sampling rate                            : 48.0 KHz
Bit depth                                : 24 bits
Compression mode                         : Lossy
Stream size                              : 1.41 GiB (13%)
Language                                 : English
Default                                  : Yes
Forced                                   : No

Text
ID                                       : 3
Format                                   : UTF-8
Codec ID                                 : S_TEXT/UTF8
Codec ID/Info                            : UTF-8 Plain Text
Language                                 : English
Default                                  : No
Forced                                   : No

Menu
00:00:00.000                             : en:00:00:00.000
00:08:37.559                             : en:00:08:37.559
00:11:26.728                             : en:00:11:26.728
00:15:45.069                             : en:00:15:45.069
00:18:28.316                             : en:00:18:28.316
00:27:32.401                             : en:00:27:32.401
00:31:28.345                             : en:00:31:28.345
00:32:52.304                             : en:00:32:52.304
00:36:16.257                             : en:00:36:16.257
00:40:44.984                             : en:00:40:44.984
00:43:33.277                             : en:00:43:33.277
00:46:12.979                             : en:00:46:12.979
00:47:42.485                             : en:00:47:42.485
00:50:38.953                             : en:00:50:38.953
00:54:59.922                             : en:00:54:59.922
00:57:39.539                             : en:00:57:39.539
01:02:05.972                             : en:01:02:05.972
01:11:29.744                             : en:01:11:29.744
01:14:45.815                             : en:01:14:45.815
01:20:23.819                             : en:01:20:23.819
01:25:41.345                             : en:01:25:41.345
01:30:40.185                             : en:01:30:40.185
01:32:34.466                             : en:01:32:34.466
01:38:33.407                             : en:01:38:33.407
01:42:53.667                             : en:01:42:53.667
01:49:44.369                             : en:01:49:44.369
01:54:54.387                             : en:01:54:54.387
01:56:46.499                             : en:01:56:46.499
02:01:21.649                             : en:02:01:21.649
02:05:32.734                             : en:02:05:32.734
02:08:31.537                             : en:02:08:31.537
02:10:36.746                             : en:02:10:36.746
02:13:20.784                             : en:02:13:20.784
Ara
Cevapla


Konu ile Alakalı Benzer Konular
Konular Yazar Yorumlar Okunma Son Yorum
  Ben Hur | 2016 | 720p | BluRay | x264 | GECKOS breath-10 0 53 27-11-2016, Saat: 12:44
Son Yorum: breath-10
  The Whole Truth | 2016 | 720p | BluRay | x264 breath-10 0 174 27-11-2016, Saat: 12:34
Son Yorum: breath-10
  Jason Bourne | 2016 | 720p | BluRay | x264 | SPARKS breath-10 0 38 18-11-2016, Saat: 19:47
Son Yorum: breath-10
  Suicide Squad | 2016 | 1080p | WEB-DL | H264 | AC3 | EVO breath-10 0 40 15-11-2016, Saat: 23:34
Son Yorum: breath-10
  Mechanic Resurrection | 2016 | 720p | BluRay | x264 | DD5 1 | HDC breath-10 0 58 10-11-2016, Saat: 21:10
Son Yorum: breath-10

Hızlı Menü:

Hakkımızda
Sitemizde yer alan tüm videolar, filmler kaynak kodları ile Turbobit, Uploaded, Ul.to v.b. dosya paylaşım sitelerinden alınmaktadır. Telif hakları sorumluluğu bu sitelere aittir. Dosyaların hiç biri sunucularımızda bulunmamaktadır. Yine de hak sahiplerinin talep etmesi halinde istenen içerik siteden kaldırılabilir. İletişim adresi sitemizde mevcuttur. İletişim / Contact (Reklam, Dmca, Telif vs):okaan9999@gmail.com
Forum