DivxDepo.NET - Film indir - Dizi indir - Oyun indir
Hoşgeldin, Ziyaretçi: Üye Ol
DivxDepo.Net'e Hoşgeldiniz :)
Umarım Aradığınızı Bulursunuz.İsteklerinizi İletişim Sayfamızdan bildirebilirsiniz.

DivxDepo.Net Önerdiklerimiz
Konuyu Oyla:
  • Toplam: 0 Oy - Ortalama: 0
  • 1
  • 2
  • 3
  • 4
  • 5
Lakeview Terrace (2008) 1080p BluRay x264 DD5.1-FGT Konuyu Okuyanlar: 1 Ziyaretçi
#1
Lakeview_Terrace_2008_1080p_Blu_Ray_x264_DD5_1_FG.png

Lakeview.Terrace.2008.1080p.BluRay.x264.DD5.1-FGT

Kod:
http://uploaded.net/file/vyf5bgwl/Lakeview.Terrace.2008.1080p.BluRay.x264.DD5.1-FGT.part1.rar
http://uploaded.net/file/nf76mb3x/Lakeview.Terrace.2008.1080p.BluRay.x264.DD5.1-FGT.part6.rar
http://uploaded.net/file/nq82t771/Lakeview.Terrace.2008.1080p.BluRay.x264.DD5.1-FGT.part3.rar
http://uploaded.net/file/et23a2ll/Lakeview.Terrace.2008.1080p.BluRay.x264.DD5.1-FGT.part7.rar
http://uploaded.net/file/m7wp0iho/Lakeview.Terrace.2008.1080p.BluRay.x264.DD5.1-FGT.part2.rar
http://uploaded.net/file/7esyut88/Lakeview.Terrace.2008.1080p.BluRay.x264.DD5.1-FGT.part4.rar
http://uploaded.net/file/gbtsfuho/Lakeview.Terrace.2008.1080p.BluRay.x264.DD5.1-FGT.part5.rar
http://uploaded.net/file/i2fye52b/Lakeview.Terrace.2008.1080p.BluRay.x264.DD5.1-FGT.part8.rar

Kod:
http://imdb.com/title/tt0947802/

96938466043007251802_thumb.png
64728423601153023230_thumb.png
65794416824352500578_thumb.png
41336511515597085462_thumb.png
36214187781260052689_thumb.png

Kod:
Video
ID                                       : 1
Format                                   : AVC
Format/Info                              : Advanced Video Codec
Format profile                           : High@L4.1
Format settings, CABAC                   : Yes
Format settings, ReFrames                : 5 frames
Codec ID                                 : V_MPEG4/ISO/AVC
Duration                                 : 1h 50mn
Bit rate                                 : 9 016 Kbps
Width                                    : 1 920 pixels
Height                                   : 800 pixels
Display aspect ratio                     : 2.40:1
Frame rate mode                          : Constant
Frame rate                               : 23.976 fps
Color space                              : YUV
Chroma subsampling                       : 4:2:0
Bit depth                                : 8 bits
Scan type                                : Progressive
Bits/(Pixel*Frame)                       : 0.245
Stream size                              : 6.81 GiB (91%)
Writing library                          : x264 core 67 r1136M 3f9ba82
Encoding settings                        : cabac=1 / ref=5 / deblock=1:-3:-3 / analyse=0x3:0x113 / me=umh / subme=9 / psy_rd=1.0:0.0 / mixed_ref=1 / me_range=32 / chroma_me=1 / trellis=2 / 8x8dct=1 / cqm=0 / deadzone=21,11 / chroma_qp_offset=-2 / threads=6 / nr=0 / decimate=1 / mbaff=0 / bframes=3 / b_pyramid=1 / b_adapt=2 / b_bias=0 / direct=3 / wpredb=1 / keyint=250 / keyint_min=25 / scenecut=40 / rc=2pass / bitrate=9016 / ratetol=1.0 / qcomp=0.60 / qpmin=10 / qpmax=51 / qpstep=4 / cplxblur=20.0 / qblur=0.5 / ip_ratio=1.40 / pb_ratio=1.30 / aq=1:0.80
Language                                 : English
Default                                  : Yes
Forced                                   : No

Audio
ID                                       : 2
Format                                   : AC-3
Format/Info                              : Audio Coding 3
Mode extension                           : CM (complete main)
Format settings, Endianness              : Big
Codec ID                                 : A_AC3
Duration                                 : 1h 50mn
Bit rate mode                            : Constant
Bit rate                                 : 640 Kbps
Channel(s)                               : 6 channels
Channel positions                        : Front: L C R, Side: L R, LFE
Sampling rate                            : 48.0 KHz
Compression mode                         : Lossy
Stream size                              : 506 MiB (7%)
Language                                 : English
Default                                  : Yes
Forced                                   : No

Text
ID                                       : 3
Format                                   : UTF-8
Codec ID                                 : S_TEXT/UTF8
Codec ID/Info                            : UTF-8 Plain Text
Language                                 : English
Default                                  : No
Forced                                   : No
Ara
Cevapla


Konu ile Alakalı Benzer Konular
Konular Yazar Yorumlar Okunma Son Yorum
  Ben Hur | 2016 | 720p | BluRay | x264 | GECKOS breath-10 0 31 27-11-2016, Saat: 12:44
Son Yorum: breath-10
  The Whole Truth | 2016 | 720p | BluRay | x264 breath-10 0 172 27-11-2016, Saat: 12:34
Son Yorum: breath-10
  Jason Bourne | 2016 | 720p | BluRay | x264 | SPARKS breath-10 0 35 18-11-2016, Saat: 19:47
Son Yorum: breath-10
  Suicide Squad | 2016 | 1080p | WEB-DL | H264 | AC3 | EVO breath-10 0 37 15-11-2016, Saat: 23:34
Son Yorum: breath-10
  Mechanic Resurrection | 2016 | 720p | BluRay | x264 | DD5 1 | HDC breath-10 0 54 10-11-2016, Saat: 21:10
Son Yorum: breath-10

Hızlı Menü:

Hakkımızda
Sitemizde yer alan tüm videolar, filmler kaynak kodları ile Turbobit, Uploaded, Ul.to v.b. dosya paylaşım sitelerinden alınmaktadır. Telif hakları sorumluluğu bu sitelere aittir. Dosyaların hiç biri sunucularımızda bulunmamaktadır. Yine de hak sahiplerinin talep etmesi halinde istenen içerik siteden kaldırılabilir. İletişim adresi sitemizde mevcuttur. İletişim / Contact (Reklam, Dmca, Telif vs):okaan9999@gmail.com
Forum