DivxDepo.NET - Film indir - Dizi indir - Oyun indir
Hoşgeldin, Ziyaretçi: Üye Ol
DivxDepo.Net'e Hoşgeldiniz :)
Umarım Aradığınızı Bulursunuz.İsteklerinizi İletişim Sayfamızdan bildirebilirsiniz.

DivxDepo.Net Önerdiklerimiz
Konuyu Oyla:
  • Toplam: 0 Oy - Ortalama: 0
  • 1
  • 2
  • 3
  • 4
  • 5
In the Name of the Father (1993) 1080p BluRay x264 DTS-FGT Konuyu Okuyanlar: 1 Ziyaretçi
#1
In_the_Name_of_the_Father_1993_1080p_Blu_Ray_x264.png

In.the.Name.of.the.Father.1993.1080p.BluRay.x264.DTS-FGT

Kod:
http://uploaded.net/file/z7ac5rug/In.the.Name.of.the.Father.1993.1080p.BluRay.x264.DTS-FGT.part03.rar
http://uploaded.net/file/it9ot7b7/In.the.Name.of.the.Father.1993.1080p.BluRay.x264.DTS-FGT.part12.rar
http://uploaded.net/file/htxgihw6/In.the.Name.of.the.Father.1993.1080p.BluRay.x264.DTS-FGT.part06.rar
http://uploaded.net/file/8fkqf3jk/In.the.Name.of.the.Father.1993.1080p.BluRay.x264.DTS-FGT.part10.rar
http://uploaded.net/file/jil2c8ae/In.the.Name.of.the.Father.1993.1080p.BluRay.x264.DTS-FGT.part09.rar
http://uploaded.net/file/taqepeol/In.the.Name.of.the.Father.1993.1080p.BluRay.x264.DTS-FGT.part05.rar
http://uploaded.net/file/c1xuox8u/In.the.Name.of.the.Father.1993.1080p.BluRay.x264.DTS-FGT.part11.rar
http://uploaded.net/file/x1x7ebwg/In.the.Name.of.the.Father.1993.1080p.BluRay.x264.DTS-FGT.part04.rar
http://uploaded.net/file/sz52wjco/In.the.Name.of.the.Father.1993.1080p.BluRay.x264.DTS-FGT.part07.rar
http://uploaded.net/file/o771hgdz/In.the.Name.of.the.Father.1993.1080p.BluRay.x264.DTS-FGT.part08.rar
http://uploaded.net/file/hy062m11/In.the.Name.of.the.Father.1993.1080p.BluRay.x264.DTS-FGT.part02.rar
http://uploaded.net/file/dlnibq43/In.the.Name.of.the.Father.1993.1080p.BluRay.x264.DTS-FGT.part01.rar
http://uploaded.net/file/3gw1b3zu/In.the.Name.of.the.Father.1993.1080p.BluRay.x264.DTS-FGT.part13.rar

Kod:
http://uploadrocket.net/as3yg2uu84n9/In.the.Name.of.the.Father.1993.1080p.BluRay.x264.DTS-FGT.part01.rar.html
http://uploadrocket.net/z7ynkuvk9863/In.the.Name.of.the.Father.1993.1080p.BluRay.x264.DTS-FGT.part02.rar.html
http://uploadrocket.net/xw2ab07vks4n/In.the.Name.of.the.Father.1993.1080p.BluRay.x264.DTS-FGT.part03.rar.html
http://uploadrocket.net/rh8p7ulqbfav/In.the.Name.of.the.Father.1993.1080p.BluRay.x264.DTS-FGT.part04.rar.html
http://uploadrocket.net/gwq5708xqv7p/In.the.Name.of.the.Father.1993.1080p.BluRay.x264.DTS-FGT.part05.rar.html
http://uploadrocket.net/tsm8mpzwipdw/In.the.Name.of.the.Father.1993.1080p.BluRay.x264.DTS-FGT.part06.rar.html
http://uploadrocket.net/aty9pawofqtt/In.the.Name.of.the.Father.1993.1080p.BluRay.x264.DTS-FGT.part07.rar.html
http://uploadrocket.net/yy0med8aj53l/In.the.Name.of.the.Father.1993.1080p.BluRay.x264.DTS-FGT.part08.rar.html
http://uploadrocket.net/1weaxaxlel5q/In.the.Name.of.the.Father.1993.1080p.BluRay.x264.DTS-FGT.part09.rar.html
http://uploadrocket.net/6jt59uqzwi9f/In.the.Name.of.the.Father.1993.1080p.BluRay.x264.DTS-FGT.part10.rar.html
http://uploadrocket.net/z00i8aexxd4x/In.the.Name.of.the.Father.1993.1080p.BluRay.x264.DTS-FGT.part11.rar.html
http://uploadrocket.net/o4w5ur8t6y4c/In.the.Name.of.the.Father.1993.1080p.BluRay.x264.DTS-FGT.part12.rar.html
http://uploadrocket.net/rei1wrw100hx/In.the.Name.of.the.Father.1993.1080p.BluRay.x264.DTS-FGT.part13.rar.html

Kod:
http://imdb.com/title/tt0107207/

89598356776240037901_thumb.png
44131283649513881137_thumb.png
87546339242068306793_thumb.png
22100371262647727841_thumb.png
62230940674482294714_thumb.png

Kod:
Video
ID                                       : 1
Format                                   : AVC
Format/Info                              : Advanced Video Codec
Format profile                           : High@L4.1
Format settings, CABAC                   : Yes
Format settings, ReFrames                : 4 frames
Codec ID                                 : V_MPEG4/ISO/AVC
Duration                                 : 2h 12mn
Bit rate                                 : 11.5 Mbps
Width                                    : 1 916 pixels
Height                                   : 1 040 pixels
Display aspect ratio                     : 1.85:1
Frame rate mode                          : Constant
Frame rate                               : 23.976 fps
Color space                              : YUV
Chroma subsampling                       : 4:2:0
Bit depth                                : 8 bits
Scan type                                : Progressive
Bits/(Pixel*Frame)                       : 0.241
Stream size                              : 10.5 GiB (86%)
Writing library                          : x264 core 135 r2345 f0c1c53
Encoding settings                        : cabac=1 / ref=4 / deblock=1:-3:-3 / analyse=0x3:0x113 / me=umh / subme=9 / psy=1 / psy_rd=1.00:0.05 / mixed_ref=1 / me_range=32 / chroma_me=1 / trellis=2 / 8x8dct=1 / cqm=0 / deadzone=21,11 / fast_pskip=0 / chroma_qp_offset=-2 / threads=12 / lookahead_threads=1 / sliced_threads=0 / nr=0 / decimate=1 / interlaced=0 / bluray_compat=0 / constrained_intra=0 / bframes=4 / b_pyramid=2 / b_adapt=2 / b_bias=0 / direct=3 / weightb=1 / open_gop=0 / weightp=2 / keyint=250 / keyint_min=23 / scenecut=40 / intra_refresh=0 / rc=2pass / mbtree=0 / bitrate=11537 / ratetol=1.0 / qcomp=0.70 / qpmin=0 / qpmax=69 / qpstep=4 / cplxblur=20.0 / qblur=0.5 / ip_ratio=1.40 / pb_ratio=1.30 / aq=2:1.00
Language                                 : English
Default                                  : Yes
Forced                                   : No

Audio
ID                                       : 2
Format                                   : DTS
Format/Info                              : Digital Theater Systems
Mode                                     : 16
Format settings, Endianness              : Big
Codec ID                                 : A_DTS
Duration                                 : 2h 12mn
Bit rate mode                            : Constant
Bit rate                                 : 1 509 Kbps
Channel(s)                               : 6 channels
Channel positions                        : Front: L C R, Side: L R, LFE
Sampling rate                            : 48.0 KHz
Bit depth                                : 24 bits
Compression mode                         : Lossy
Stream size                              : 1.40 GiB (12%)
Language                                 : English
Default                                  : Yes
Forced                                   : No
Ara
Cevapla


Konu ile Alakalı Benzer Konular
Konular Yazar Yorumlar Okunma Son Yorum
  Ben Hur | 2016 | 720p | BluRay | x264 | GECKOS breath-10 0 62 27-11-2016, Saat: 12:44
Son Yorum: breath-10
  The Whole Truth | 2016 | 720p | BluRay | x264 breath-10 0 182 27-11-2016, Saat: 12:34
Son Yorum: breath-10
  Jason Bourne | 2016 | 720p | BluRay | x264 | SPARKS breath-10 0 48 18-11-2016, Saat: 19:47
Son Yorum: breath-10
  Suicide Squad | 2016 | 1080p | WEB-DL | H264 | AC3 | EVO breath-10 0 51 15-11-2016, Saat: 23:34
Son Yorum: breath-10
  Mechanic Resurrection | 2016 | 720p | BluRay | x264 | DD5 1 | HDC breath-10 0 65 10-11-2016, Saat: 21:10
Son Yorum: breath-10

Hızlı Menü:

Hakkımızda
Sitemizde yer alan tüm videolar, filmler kaynak kodları ile Turbobit, Uploaded, Ul.to v.b. dosya paylaşım sitelerinden alınmaktadır. Telif hakları sorumluluğu bu sitelere aittir. Dosyaların hiç biri sunucularımızda bulunmamaktadır. Yine de hak sahiplerinin talep etmesi halinde istenen içerik siteden kaldırılabilir. İletişim adresi sitemizde mevcuttur. İletişim / Contact (Reklam, Dmca, Telif vs):okaan9999@gmail.com
Forum