DivxDepo.NET - Film indir - Dizi indir - Oyun indir
Hoşgeldin, Ziyaretçi: Üye Ol
DivxDepo.Net'e Hoşgeldiniz :)
Umarım Aradığınızı Bulursunuz.İsteklerinizi İletişim Sayfamızdan bildirebilirsiniz.

DivxDepo.Net Önerdiklerimiz
Konuyu Oyla:
  • Toplam: 0 Oy - Ortalama: 0
  • 1
  • 2
  • 3
  • 4
  • 5
Hyena (2014) 1080p BluRay x264 DTS-RARBG Konuyu Okuyanlar: 1 Ziyaretçi
#1
Hyena_2014_720p_Blu_Ray_x264_DTS_RARBG.png

Hyena.2014.1080p.BluRay.x264.DTS-RARBG

Kod:
http://uploaded.net/file/7mnp6het/Hyena.2014.1080p.BluRay.x264.DTS-RARBG.part05.rar
http://uploaded.net/file/158vjceo/Hyena.2014.1080p.BluRay.x264.DTS-RARBG.part09.rar
http://uploaded.net/file/2a1wtsb9/Hyena.2014.1080p.BluRay.x264.DTS-RARBG.part07.rar
http://uploaded.net/file/qpe2dsh2/Hyena.2014.1080p.BluRay.x264.DTS-RARBG.part03.rar
http://uploaded.net/file/65097w7k/Hyena.2014.1080p.BluRay.x264.DTS-RARBG.part08.rar
http://uploaded.net/file/tqrdd9yv/Hyena.2014.1080p.BluRay.x264.DTS-RARBG.part10.rar
http://uploaded.net/file/o6lkgmx4/Hyena.2014.1080p.BluRay.x264.DTS-RARBG.part06.rar
http://uploaded.net/file/81nrtjop/Hyena.2014.1080p.BluRay.x264.DTS-RARBG.part01.rar
http://uploaded.net/file/ulcfvlyr/Hyena.2014.1080p.BluRay.x264.DTS-RARBG.part02.rar
http://uploaded.net/file/wzm1ayx0/Hyena.2014.1080p.BluRay.x264.DTS-RARBG.part04.rar
http://uploaded.net/file/8di8dtec/Hyena.2014.1080p.BluRay.x264.DTS-RARBG.part11.rar

Kod:
http://uploadrocket.net/bt3s78wslujt/Hyena.2014.1080p.BluRay.x264.DTS-RARBG.part01.rar.html
http://uploadrocket.net/tgkfjnx09nfb/Hyena.2014.1080p.BluRay.x264.DTS-RARBG.part02.rar.html
http://uploadrocket.net/jvu3ggfg31qt/Hyena.2014.1080p.BluRay.x264.DTS-RARBG.part03.rar.html
http://uploadrocket.net/2f5smr2onz1k/Hyena.2014.1080p.BluRay.x264.DTS-RARBG.part04.rar.html
http://uploadrocket.net/h0zz0pl9otdb/Hyena.2014.1080p.BluRay.x264.DTS-RARBG.part05.rar.html
http://uploadrocket.net/aushf9gbjmsc/Hyena.2014.1080p.BluRay.x264.DTS-RARBG.part06.rar.html
http://uploadrocket.net/icfqadlbpi3h/Hyena.2014.1080p.BluRay.x264.DTS-RARBG.part07.rar.html
http://uploadrocket.net/5k8b371jalb3/Hyena.2014.1080p.BluRay.x264.DTS-RARBG.part08.rar.html
http://uploadrocket.net/ghn7wks8afjt/Hyena.2014.1080p.BluRay.x264.DTS-RARBG.part09.rar.html
http://uploadrocket.net/klerxa9m6w9r/Hyena.2014.1080p.BluRay.x264.DTS-RARBG.part10.rar.html
http://uploadrocket.net/wbqjnmfqx1or/Hyena.2014.1080p.BluRay.x264.DTS-RARBG.part11.rar.html

Kod:
http://rapidgator.net/file/d4b81c51ec86f8e0722d20d519865320/Hyena.2014.1080p.BluRay.x264.DTS-RARBG.part11.rar.html
http://rapidgator.net/file/1971e3838885abe158eb3bb5d8406afe/Hyena.2014.1080p.BluRay.x264.DTS-RARBG.part08.rar.html
http://rapidgator.net/file/8db5ccad70c96ef98f2c1f63975b407d/Hyena.2014.1080p.BluRay.x264.DTS-RARBG.part09.rar.html
http://rapidgator.net/file/d3656ff1399da869f6459d58125b560e/Hyena.2014.1080p.BluRay.x264.DTS-RARBG.part10.rar.html
http://rapidgator.net/file/e1d11410593090c33c70a799aa47b95d/Hyena.2014.1080p.BluRay.x264.DTS-RARBG.part03.rar.html
http://rapidgator.net/file/cbee4a8499b3ad88d4bdb06f8e0fa6ee/Hyena.2014.1080p.BluRay.x264.DTS-RARBG.part07.rar.html
http://rapidgator.net/file/ad493c9221bb35a2d40ea76e1f162998/Hyena.2014.1080p.BluRay.x264.DTS-RARBG.part05.rar.html
http://rapidgator.net/file/1486862b9233300e440f457afb9420d5/Hyena.2014.1080p.BluRay.x264.DTS-RARBG.part02.rar.html
http://rapidgator.net/file/0097ce43e837ad146f9ec75c1531dc74/Hyena.2014.1080p.BluRay.x264.DTS-RARBG.part04.rar.html
http://rapidgator.net/file/3b70fb26f13d43edc507e8d41feedf7e/Hyena.2014.1080p.BluRay.x264.DTS-RARBG.part06.rar.html
http://rapidgator.net/file/069c93401b05efb5ef0d7cf07e164e25/Hyena.2014.1080p.BluRay.x264.DTS-RARBG.part01.rar.html

Kod:
http://imdb.com/title/tt1837574/

Kod:
Video
ID                                       : 1
Format                                   : AVC
Format/Info                              : Advanced Video Codec
Format profile                           : High@L4.1
Format settings, CABAC                   : Yes
Format settings, ReFrames                : 4 frames
Codec ID                                 : V_MPEG4/ISO/AVC
Duration                                 : 1h 52mn
Bit rate                                 : 10.8 Mbps
Nominal bit rate                         : 11.5 Mbps
Width                                    : 1 920 pixels
Height                                   : 800 pixels
Display aspect ratio                     : 2.40:1
Frame rate mode                          : Constant
Frame rate                               : 24.000 fps
Color space                              : YUV
Chroma subsampling                       : 4:2:0
Bit depth                                : 8 bits
Scan type                                : Progressive
Bits/(Pixel*Frame)                       : 0.292
Stream size                              : 8.47 GiB (86%)
Title                                    : Hyena.2014.1080p.BluRay.x264.DTS-RARBG
Writing library                          : x264 core 144 r96 40bb568
Encoding settings                        : cabac=1 / ref=4 / deblock=1:-2:-2 / analyse=0x3:0x113 / me=umh / subme=7 / psy=1 / psy_rd=1.00:0.15 / mixed_ref=1 / me_range=16 / chroma_me=1 / trellis=1 / 8x8dct=1 / cqm=0 / deadzone=21,11 / fast_pskip=1 / chroma_qp_offset=-3 / threads=12 / lookahead_threads=3 / sliced_threads=0 / nr=0 / decimate=1 / interlaced=0 / bluray_compat=0 / constrained_intra=0 / bframes=3 / b_pyramid=2 / b_adapt=2 / b_bias=0 / direct=3 / weightb=1 / open_gop=0 / weightp=2 / keyint=250 / keyint_min=25 / scenecut=40 / intra_refresh=0 / rc_lookahead=50 / rc=abr / mbtree=1 / bitrate=11500 / ratetol=1.0 / qcomp=0.60 / qpmin=0 / qpmax=69 / qpstep=4 / vbv_maxrate=31250 / vbv_bufsize=31250 / nal_hrd=none / filler=0 / ip_ratio=1.40 / aq=1:1.00
Language                                 : English
Default                                  : Yes
Forced                                   : No

Audio
ID                                       : 2
Format                                   : DTS
Format/Info                              : Digital Theater Systems
Mode                                     : 16
Format settings, Endianness              : Big
Codec ID                                 : A_DTS
Duration                                 : 1h 52mn
Bit rate mode                            : Constant
Bit rate                                 : 1 509 Kbps
Channel(s)                               : 6 channels
Channel positions                        : Front: L C R, Side: L R, LFE
Sampling rate                            : 48.0 KHz
Bit depth                                : 24 bits
Compression mode                         : Lossy
Stream size                              : 1.19 GiB (12%)
Title                                    : Hyena.2014.1080p.BluRay.x264.DTS-RARBG
Language                                 : English
Default                                  : Yes
Forced                                   : No

Text
ID                                       : 3
Format                                   : UTF-8
Codec ID                                 : S_TEXT/UTF8
Codec ID/Info                            : UTF-8 Plain Text
Language                                 : English
Default                                  : Yes
Forced                                   : No
Ara
Cevapla


Konu ile Alakalı Benzer Konular
Konular Yazar Yorumlar Okunma Son Yorum
  Ben Hur | 2016 | 720p | BluRay | x264 | GECKOS breath-10 0 62 27-11-2016, Saat: 12:44
Son Yorum: breath-10
  The Whole Truth | 2016 | 720p | BluRay | x264 breath-10 0 182 27-11-2016, Saat: 12:34
Son Yorum: breath-10
  Jason Bourne | 2016 | 720p | BluRay | x264 | SPARKS breath-10 0 48 18-11-2016, Saat: 19:47
Son Yorum: breath-10
  Suicide Squad | 2016 | 1080p | WEB-DL | H264 | AC3 | EVO breath-10 0 51 15-11-2016, Saat: 23:34
Son Yorum: breath-10
  Mechanic Resurrection | 2016 | 720p | BluRay | x264 | DD5 1 | HDC breath-10 0 65 10-11-2016, Saat: 21:10
Son Yorum: breath-10

Hızlı Menü:

Hakkımızda
Sitemizde yer alan tüm videolar, filmler kaynak kodları ile Turbobit, Uploaded, Ul.to v.b. dosya paylaşım sitelerinden alınmaktadır. Telif hakları sorumluluğu bu sitelere aittir. Dosyaların hiç biri sunucularımızda bulunmamaktadır. Yine de hak sahiplerinin talep etmesi halinde istenen içerik siteden kaldırılabilir. İletişim adresi sitemizde mevcuttur. İletişim / Contact (Reklam, Dmca, Telif vs):okaan9999@gmail.com
Forum