DivxDepo.NET - Film indir - Dizi indir - Oyun indir
Hoşgeldin, Ziyaretçi: Üye Ol
DivxDepo.Net'e Hoşgeldiniz :)
Umarım Aradığınızı Bulursunuz.İsteklerinizi İletişim Sayfamızdan bildirebilirsiniz.

DivxDepo.Net Önerdiklerimiz
Konuyu Oyla:
  • Toplam: 0 Oy - Ortalama: 0
  • 1
  • 2
  • 3
  • 4
  • 5
Hollywood Chainsaw Hookers (1988) 1080p BluRay x264-SONiDO Konuyu Okuyanlar: 1 Ziyaretçi
#1
Hollywood_Chainsaw_Hookers_1988_1080p_Blu_Ray_x26.png

Hollywood.Chainsaw.Hookers.1988.1080p.BluRay.x264-SONiDO

Kod:
http://uploaded.net/file/a9e3yo87/Hollywood.Chainsaw.Hookers.1988.1080p.BluRay.x264-SONiDO.part2.rar
http://uploaded.net/file/xwoovykq/Hollywood.Chainsaw.Hookers.1988.1080p.BluRay.x264-SONiDO.part1.rar
http://uploaded.net/file/dul3pul1/Hollywood.Chainsaw.Hookers.1988.1080p.BluRay.x264-SONiDO.part4.rar
http://uploaded.net/file/glp04msv/Hollywood.Chainsaw.Hookers.1988.1080p.BluRay.x264-SONiDO.part5.rar
http://uploaded.net/file/1zoew89y/Hollywood.Chainsaw.Hookers.1988.1080p.BluRay.x264-SONiDO.part3.rar
http://uploaded.net/file/kkiw3jcp/Hollywood.Chainsaw.Hookers.1988.1080p.BluRay.x264-SONiDO.part6.rar

Kod:
http://uploadrocket.net/nv6ij38ffn5q/Hollywood.Chainsaw.Hookers.1988.1080p.BluRay.x264-SONiDO.part1.rar.html
http://uploadrocket.net/pqp8hr46ze54/Hollywood.Chainsaw.Hookers.1988.1080p.BluRay.x264-SONiDO.part2.rar.html
http://uploadrocket.net/ayqncycg1k24/Hollywood.Chainsaw.Hookers.1988.1080p.BluRay.x264-SONiDO.part3.rar.html
http://uploadrocket.net/vq3mi8dxoosx/Hollywood.Chainsaw.Hookers.1988.1080p.BluRay.x264-SONiDO.part4.rar.html
http://uploadrocket.net/a6e8q3ozsf8t/Hollywood.Chainsaw.Hookers.1988.1080p.BluRay.x264-SONiDO.part5.rar.html
http://uploadrocket.net/eotad8lip7kn/Hollywood.Chainsaw.Hookers.1988.1080p.BluRay.x264-SONiDO.part6.rar.html

Kod:
http://imdb.com/title/tt0095312/

78136730980033236921_thumb.png
47658743031254812383_thumb.png
60414601353456235930_thumb.png
02629631911570099174_thumb.png
90909497304260827252_thumb.png

Kod:
Video
ID                                       : 1
Format                                   : AVC
Format/Info                              : Advanced Video Codec
Format profile                           : High@L4.1
Format settings, CABAC                   : Yes
Format settings, ReFrames                : 4 frames
Codec ID                                 : V_MPEG4/ISO/AVC
Duration                                 : 1h 14mn
Bit rate                                 : 8 931 Kbps
Width                                    : 1 920 pixels
Height                                   : 1 080 pixels
Display aspect ratio                     : 16:9
Frame rate mode                          : Constant
Frame rate                               : 23.976 fps
Color space                              : YUV
Chroma subsampling                       : 4:2:0
Bit depth                                : 8 bits
Scan type                                : Progressive
Bits/(Pixel*Frame)                       : 0.180
Stream size                              : 4.55 GiB (84%)
Writing library                          : x264 core 144 r2525 40bb568
Encoding settings                        : cabac=1 / ref=4 / deblock=1:0:0 / analyse=0x3:0x133 / me=umh / subme=7 / psy=1 / psy_rd=1.00:0.00 / mixed_ref=1 / me_range=16 / chroma_me=1 / trellis=1 / 8x8dct=1 / cqm=0 / deadzone=21,11 / fast_pskip=0 / chroma_qp_offset=-2 / threads=12 / lookahead_threads=2 / sliced_threads=0 / nr=0 / decimate=1 / interlaced=0 / bluray_compat=0 / constrained_intra=0 / bframes=3 / b_pyramid=2 / b_adapt=2 / b_bias=0 / direct=3 / weightb=1 / open_gop=0 / weightp=2 / keyint=250 / keyint_min=23 / scenecut=40 / intra_refresh=0 / rc_lookahead=50 / rc=2pass / mbtree=1 / bitrate=8931 / ratetol=1.0 / qcomp=0.60 / qpmin=0 / qpmax=69 / qpstep=4 / cplxblur=20.0 / qblur=0.5 / ip_ratio=1.40 / aq=1:1.00
Language                                 : English
Default                                  : Yes
Forced                                   : No
DURATION                                 : 01:14:49.068000000
NUMBER_OF_FRAMES                         : 107630
NUMBER_OF_BYTES                          : 4999588342
_STATISTICS_WRITING_APP                  : mkvmerge v7.0.0 ('Where We Going') 32bit built on Jun  9 2014 15:08:34
_STATISTICS_WRITING_DATE_UTC             : 2015-03-25 10:22:50
_STATISTICS_TAGS                         : BPS DURATION NUMBER_OF_FRAMES NUMBER_OF_BYTES

Audio
ID                                       : 2
Format                                   : DTS
Format/Info                              : Digital Theater Systems
Mode                                     : 16
Format settings, Endianness              : Big
Codec ID                                 : A_DTS
Duration                                 : 1h 14mn
Bit rate mode                            : Constant
Bit rate                                 : 1 509 Kbps
Channel(s)                               : 6 channels
Channel positions                        : Front: L C R, Side: L R, LFE
Sampling rate                            : 48.0 KHz
Bit depth                                : 24 bits
Compression mode                         : Lossy
Stream size                              : 808 MiB (14%)
Language                                 : English
Default                                  : Yes
Forced                                   : No
Ara
Cevapla


Konu ile Alakalı Benzer Konular
Konular Yazar Yorumlar Okunma Son Yorum
  Ben Hur | 2016 | 720p | BluRay | x264 | GECKOS breath-10 0 59 27-11-2016, Saat: 12:44
Son Yorum: breath-10
  The Whole Truth | 2016 | 720p | BluRay | x264 breath-10 0 179 27-11-2016, Saat: 12:34
Son Yorum: breath-10
  Jason Bourne | 2016 | 720p | BluRay | x264 | SPARKS breath-10 0 46 18-11-2016, Saat: 19:47
Son Yorum: breath-10
  Suicide Squad | 2016 | 1080p | WEB-DL | H264 | AC3 | EVO breath-10 0 45 15-11-2016, Saat: 23:34
Son Yorum: breath-10
  Mechanic Resurrection | 2016 | 720p | BluRay | x264 | DD5 1 | HDC breath-10 0 63 10-11-2016, Saat: 21:10
Son Yorum: breath-10

Hızlı Menü:

Hakkımızda
Sitemizde yer alan tüm videolar, filmler kaynak kodları ile Turbobit, Uploaded, Ul.to v.b. dosya paylaşım sitelerinden alınmaktadır. Telif hakları sorumluluğu bu sitelere aittir. Dosyaların hiç biri sunucularımızda bulunmamaktadır. Yine de hak sahiplerinin talep etmesi halinde istenen içerik siteden kaldırılabilir. İletişim adresi sitemizde mevcuttur. İletişim / Contact (Reklam, Dmca, Telif vs):okaan9999@gmail.com
Forum