DivxDepo.NET - Film indir - Dizi indir - Oyun indir
Hoşgeldin, Ziyaretçi: Üye Ol
DivxDepo.Net'e Hoşgeldiniz :)
Umarım Aradığınızı Bulursunuz.İsteklerinizi İletişim Sayfamızdan bildirebilirsiniz.

DivxDepo.Net Önerdiklerimiz
Konuyu Oyla:
  • Toplam: 0 Oy - Ortalama: 0
  • 1
  • 2
  • 3
  • 4
  • 5
Hereafter (2010) 1080p BluRay x264-TWiZTED Konuyu Okuyanlar: 1 Ziyaretçi
#1
Hereafter_2010_1080p_Blu_Ray_x264_TWi_ZTED.png

Hereafter.2010.1080p.BluRay.x264-TWiZTED

Kod:
http://uploaded.net/file/f34o8216/Hereafter.2010.1080p.BluRay.x264-TWiZTED.part02.rar
http://uploaded.net/file/8vepuq6n/Hereafter.2010.1080p.BluRay.x264-TWiZTED.part10.rar
http://uploaded.net/file/ggs1ynhn/Hereafter.2010.1080p.BluRay.x264-TWiZTED.part04.rar
http://uploaded.net/file/4849wiqn/Hereafter.2010.1080p.BluRay.x264-TWiZTED.part03.rar
http://uploaded.net/file/l6tryh6i/Hereafter.2010.1080p.BluRay.x264-TWiZTED.part09.rar
http://uploaded.net/file/x82htjgl/Hereafter.2010.1080p.BluRay.x264-TWiZTED.part08.rar
http://uploaded.net/file/5irh33y3/Hereafter.2010.1080p.BluRay.x264-TWiZTED.part06.rar
http://uploaded.net/file/7cr23lio/Hereafter.2010.1080p.BluRay.x264-TWiZTED.part05.rar
http://uploaded.net/file/4h92ui69/Hereafter.2010.1080p.BluRay.x264-TWiZTED.part01.rar
http://uploaded.net/file/q1wj9upu/Hereafter.2010.1080p.BluRay.x264-TWiZTED.part07.rar
http://uploaded.net/file/uewvw1iy/Hereafter.2010.1080p.BluRay.x264-TWiZTED.part11.rar

Kod:
http://uploadrocket.net/gudwnbpyyyvw/Hereafter.2010.1080p.BluRay.x264-TWiZTED.part01.rar.html
http://uploadrocket.net/7py11dlhkw9d/Hereafter.2010.1080p.BluRay.x264-TWiZTED.part02.rar.html
http://uploadrocket.net/3akrznvu0skl/Hereafter.2010.1080p.BluRay.x264-TWiZTED.part03.rar.html
http://uploadrocket.net/3q6z0ifcsgt5/Hereafter.2010.1080p.BluRay.x264-TWiZTED.part04.rar.html
http://uploadrocket.net/cgujaf5lf7fz/Hereafter.2010.1080p.BluRay.x264-TWiZTED.part05.rar.html
http://uploadrocket.net/pwubeek59i8a/Hereafter.2010.1080p.BluRay.x264-TWiZTED.part06.rar.html
http://uploadrocket.net/5m1yuomfzxs4/Hereafter.2010.1080p.BluRay.x264-TWiZTED.part07.rar.html
http://uploadrocket.net/l3xhmy35m36r/Hereafter.2010.1080p.BluRay.x264-TWiZTED.part08.rar.html
http://uploadrocket.net/4pzchu5abre4/Hereafter.2010.1080p.BluRay.x264-TWiZTED.part09.rar.html
http://uploadrocket.net/60bpzexilrut/Hereafter.2010.1080p.BluRay.x264-TWiZTED.part10.rar.html
http://uploadrocket.net/v90p32fj4mo0/Hereafter.2010.1080p.BluRay.x264-TWiZTED.part11.rar.html

Kod:
http://rapidgator.net/file/e73ff0aa94261ba8ddb5c4ce3a02fa2d/Hereafter.2010.1080p.BluRay.x264-TWiZTED.part08.rar.html
http://rapidgator.net/file/fc4c6159b0823a0295ca9f41fc770c72/Hereafter.2010.1080p.BluRay.x264-TWiZTED.part03.rar.html
http://rapidgator.net/file/954664f345ce01376b1d8f581c2ee7c4/Hereafter.2010.1080p.BluRay.x264-TWiZTED.part01.rar.html
http://rapidgator.net/file/9fc8fc2c6c907dcc9a7493cf2e20df23/Hereafter.2010.1080p.BluRay.x264-TWiZTED.part04.rar.html
http://rapidgator.net/file/4a02a56355ca0198dd733541f88b14da/Hereafter.2010.1080p.BluRay.x264-TWiZTED.part05.rar.html
http://rapidgator.net/file/1b06cbf0930e45fd59fc5a379b2f6d8f/Hereafter.2010.1080p.BluRay.x264-TWiZTED.part02.rar.html
http://rapidgator.net/file/40348ee7dbe1693ed8f9e55722bc060c/Hereafter.2010.1080p.BluRay.x264-TWiZTED.part10.rar.html
http://rapidgator.net/file/2d6001ae5503aa5a99e40d39951e6245/Hereafter.2010.1080p.BluRay.x264-TWiZTED.part09.rar.html
http://rapidgator.net/file/e15eb5b0d45b82ad623d7d8eaa3db521/Hereafter.2010.1080p.BluRay.x264-TWiZTED.part06.rar.html
http://rapidgator.net/file/e2c6e4dfd66708eccd74296831d7195c/Hereafter.2010.1080p.BluRay.x264-TWiZTED.part07.rar.html
http://rapidgator.net/file/08522394fbbe8b75ace2b8f4cd3b4063/Hereafter.2010.1080p.BluRay.x264-TWiZTED.part11.rar.html

Kod:
http://imdb.com/title/tt1212419/

Kod:
Video
ID                                       : 1
Format                                   : AVC
Format/Info                              : Advanced Video Codec
Format profile                           : High@L4.1
Format settings, CABAC                   : Yes
Format settings, ReFrames                : 5 frames
Codec ID                                 : V_MPEG4/ISO/AVC
Duration                                 : 2h 9mn
Bit rate                                 : 9 402 Kbps
Width                                    : 1 920 pixels
Height                                   : 800 pixels
Display aspect ratio                     : 2.40:1
Frame rate mode                          : Constant
Frame rate                               : 23.976 fps
Color space                              : YUV
Chroma subsampling                       : 4:2:0
Bit depth                                : 8 bits
Scan type                                : Progressive
Bits/(Pixel*Frame)                       : 0.255
Stream size                              : 8.28 GiB (84%)
Writing library                          : x264 core 114 r1913 5fd3dce
Encoding settings                        : cabac=1 / ref=5 / deblock=1:0:0 / analyse=0x3:0x133 / me=umh / subme=8 / psy=1 / psy_rd=1.00:0.00 / mixed_ref=1 / me_range=16 / chroma_me=1 / trellis=1 / 8x8dct=1 / cqm=0 / deadzone=21,11 / fast_pskip=0 / chroma_qp_offset=-2 / threads=12 / sliced_threads=0 / nr=0 / decimate=0 / interlaced=0 / constrained_intra=0 / bframes=3 / b_pyramid=2 / b_adapt=1 / b_bias=0 / direct=1 / weightb=1 / open_gop=1 / weightp=2 / keyint=250 / keyint_min=23 / scenecut=40 / intra_refresh=0 / rc_lookahead=40 / rc=2pass / mbtree=1 / bitrate=9402 / ratetol=1.0 / qcomp=0.60 / qpmin=0 / qpmax=51 / qpstep=4 / cplxblur=20.0 / qblur=0.5 / ip_ratio=1.40 / aq=1:1.00
Language                                 : English
Default                                  : Yes
Forced                                   : No

Audio
ID                                       : 2
Format                                   : DTS
Format/Info                              : Digital Theater Systems
Mode                                     : 16
Format settings, Endianness              : Big
Codec ID                                 : A_DTS
Duration                                 : 2h 9mn
Bit rate mode                            : Constant
Bit rate                                 : 1 509 Kbps
Channel(s)                               : 6 channels
Channel positions                        : Front: L C R, Side: L R, LFE
Sampling rate                            : 48.0 KHz
Bit depth                                : 24 bits
Compression mode                         : Lossy
Stream size                              : 1.36 GiB (14%)
Title                                    : English DTS
Language                                 : English
Default                                  : Yes
Forced                                   : No

Text
ID                                       : 3
Format                                   : UTF-8
Codec ID                                 : S_TEXT/UTF8
Codec ID/Info                            : UTF-8 Plain Text
Title                                    : English Forced Subs
Language                                 : English
Default                                  : Yes
Forced                                   : Yes
Ara
Cevapla


Konu ile Alakalı Benzer Konular
Konular Yazar Yorumlar Okunma Son Yorum
  Ben Hur | 2016 | 720p | BluRay | x264 | GECKOS breath-10 0 31 27-11-2016, Saat: 12:44
Son Yorum: breath-10
  The Whole Truth | 2016 | 720p | BluRay | x264 breath-10 0 172 27-11-2016, Saat: 12:34
Son Yorum: breath-10
  Jason Bourne | 2016 | 720p | BluRay | x264 | SPARKS breath-10 0 35 18-11-2016, Saat: 19:47
Son Yorum: breath-10
  Suicide Squad | 2016 | 1080p | WEB-DL | H264 | AC3 | EVO breath-10 0 37 15-11-2016, Saat: 23:34
Son Yorum: breath-10
  Mechanic Resurrection | 2016 | 720p | BluRay | x264 | DD5 1 | HDC breath-10 0 54 10-11-2016, Saat: 21:10
Son Yorum: breath-10

Hızlı Menü:

Hakkımızda
Sitemizde yer alan tüm videolar, filmler kaynak kodları ile Turbobit, Uploaded, Ul.to v.b. dosya paylaşım sitelerinden alınmaktadır. Telif hakları sorumluluğu bu sitelere aittir. Dosyaların hiç biri sunucularımızda bulunmamaktadır. Yine de hak sahiplerinin talep etmesi halinde istenen içerik siteden kaldırılabilir. İletişim adresi sitemizde mevcuttur. İletişim / Contact (Reklam, Dmca, Telif vs):okaan9999@gmail.com
Forum