DivxDepo.NET - Film indir - Dizi indir - Oyun indir
Hoşgeldin, Ziyaretçi: Üye Ol
DivxDepo.Net'e Hoşgeldiniz :)
Umarım Aradığınızı Bulursunuz.İsteklerinizi İletişim Sayfamızdan bildirebilirsiniz.

DivxDepo.Net Önerdiklerimiz
Konuyu Oyla:
  • Toplam: 0 Oy - Ortalama: 0
  • 1
  • 2
  • 3
  • 4
  • 5
Hawking (2004) 1080p BluRay x264 DD2.0-FGT Konuyu Okuyanlar: 1 Ziyaretçi
#1
Hawking_2004_1080p_Blu_Ray_x264_DD2_0_FGT.png

Hawking.2004.1080p.BluRay.x264.DD2.0-FGT

Kod:
http://uploaded.net/file/m4wojizo/Hawking.2004.1080p.BluRay.x264.DD2.0-FGT.part1.rar
http://uploaded.net/file/dctyjtpd/Hawking.2004.1080p.BluRay.x264.DD2.0-FGT.part4.rar
http://uploaded.net/file/dsmviv9z/Hawking.2004.1080p.BluRay.x264.DD2.0-FGT.part2.rar
http://uploaded.net/file/r2ezawgx/Hawking.2004.1080p.BluRay.x264.DD2.0-FGT.part5.rar
http://uploaded.net/file/w6ju295q/Hawking.2004.1080p.BluRay.x264.DD2.0-FGT.part3.rar
http://uploaded.net/file/djmjdki7/Hawking.2004.1080p.BluRay.x264.DD2.0-FGT.part6.rar
http://uploaded.net/file/es5b8d3i/Hawking.2004.1080p.BluRay.x264.DD2.0-FGT.part7.rar

Kod:
http://uploadrocket.net/09kmty1se2j9/Hawking.2004.1080p.BluRay.x264.DD2.0-FGT.part1.rar.html
http://uploadrocket.net/v408g4oartty/Hawking.2004.1080p.BluRay.x264.DD2.0-FGT.part2.rar.html
http://uploadrocket.net/duxpakrytusm/Hawking.2004.1080p.BluRay.x264.DD2.0-FGT.part3.rar.html
http://uploadrocket.net/v1vxuzl3he87/Hawking.2004.1080p.BluRay.x264.DD2.0-FGT.part4.rar.html
http://uploadrocket.net/pddxcj8rtv46/Hawking.2004.1080p.BluRay.x264.DD2.0-FGT.part5.rar.html
http://uploadrocket.net/qowoyn388dyu/Hawking.2004.1080p.BluRay.x264.DD2.0-FGT.part6.rar.html
http://uploadrocket.net/ns708fexve6l/Hawking.2004.1080p.BluRay.x264.DD2.0-FGT.part7.rar.html

Kod:
http://imdb.com/title/tt0395571/

13198808231509814656_thumb.png
72901148507219860378_thumb.png
21835973207583044981_thumb.png
02916583885359666134_thumb.png
59656979580835573588_thumb.png

Kod:
Video
ID                                       : 1
Format                                   : AVC
Format/Info                              : Advanced Video Codec
Format profile                           : High@L4.1
Format settings, CABAC                   : Yes
Format settings, ReFrames                : 4 frames
Codec ID                                 : V_MPEG4/ISO/AVC
Duration                                 : 1h 28mn
Bit rate                                 : 10 000 Kbps
Width                                    : 1 920 pixels
Height                                   : 1 080 pixels
Display aspect ratio                     : 16:9
Frame rate mode                          : Constant
Frame rate                               : 25.000 fps
Color space                              : YUV
Chroma subsampling                       : 4:2:0
Bit depth                                : 8 bits
Scan type                                : Progressive
Bits/(Pixel*Frame)                       : 0.193
Stream size                              : 6.02 GiB (92%)
Writing library                          : x264 core 142 r2479 dd79a61
Encoding settings                        : cabac=1 / ref=3 / deblock=1:0:0 / analyse=0x3:0x113 / me=hex / subme=7 / psy=1 / psy_rd=1.00:0.00 / mixed_ref=1 / me_range=16 / chroma_me=1 / trellis=1 / 8x8dct=1 / cqm=0 / deadzone=21,11 / fast_pskip=1 / chroma_qp_offset=-2 / threads=12 / lookahead_threads=2 / sliced_threads=0 / nr=0 / decimate=1 / interlaced=0 / bluray_compat=0 / constrained_intra=0 / bframes=3 / b_pyramid=2 / b_adapt=1 / b_bias=0 / direct=1 / weightb=1 / open_gop=0 / weightp=2 / keyint=250 / keyint_min=25 / scenecut=40 / intra_refresh=0 / rc_lookahead=40 / rc=abr / mbtree=1 / bitrate=10000 / ratetol=1.0 / qcomp=0.60 / qpmin=0 / qpmax=69 / qpstep=4 / vbv_maxrate=62500 / vbv_bufsize=78125 / nal_hrd=none / filler=0 / ip_ratio=1.40 / aq=1:1.00
Language                                 : English
Default                                  : Yes
Forced                                   : No
Color range                              : Limited
Color primaries                          : BT.709
Transfer characteristics                 : BT.709
Matrix coefficients                      : BT.709

Audio
ID                                       : 2
Format                                   : AC-3
Format/Info                              : Audio Coding 3
Mode extension                           : CM (complete main)
Format settings, Endianness              : Big
Codec ID                                 : A_AC3
Duration                                 : 1h 28mn
Bit rate mode                            : Constant
Bit rate                                 : 640 Kbps
Channel(s)                               : 2 channels
Channel positions                        : Front: L R
Sampling rate                            : 48.0 KHz
Compression mode                         : Lossy
Delay relative to video                  : -5ms
Stream size                              : 406 MiB (6%)
Language                                 : English
Default                                  : Yes
Forced                                   : No

Text
ID                                       : 3
Format                                   : PGS
Muxing mode                              : zlib
Codec ID                                 : S_HDMV/PGS
Codec ID/Info                            : Picture based subtitle format used on BDs/HD-DVDs
Language                                 : English
Default                                  : No
Forced                                   : No
Ara
Cevapla


Konu ile Alakalı Benzer Konular
Konular Yazar Yorumlar Okunma Son Yorum
  Ben Hur | 2016 | 720p | BluRay | x264 | GECKOS breath-10 0 62 27-11-2016, Saat: 12:44
Son Yorum: breath-10
  The Whole Truth | 2016 | 720p | BluRay | x264 breath-10 0 182 27-11-2016, Saat: 12:34
Son Yorum: breath-10
  Jason Bourne | 2016 | 720p | BluRay | x264 | SPARKS breath-10 0 48 18-11-2016, Saat: 19:47
Son Yorum: breath-10
  Suicide Squad | 2016 | 1080p | WEB-DL | H264 | AC3 | EVO breath-10 0 51 15-11-2016, Saat: 23:34
Son Yorum: breath-10
  Mechanic Resurrection | 2016 | 720p | BluRay | x264 | DD5 1 | HDC breath-10 0 65 10-11-2016, Saat: 21:10
Son Yorum: breath-10

Hızlı Menü:

Hakkımızda
Sitemizde yer alan tüm videolar, filmler kaynak kodları ile Turbobit, Uploaded, Ul.to v.b. dosya paylaşım sitelerinden alınmaktadır. Telif hakları sorumluluğu bu sitelere aittir. Dosyaların hiç biri sunucularımızda bulunmamaktadır. Yine de hak sahiplerinin talep etmesi halinde istenen içerik siteden kaldırılabilir. İletişim adresi sitemizde mevcuttur. İletişim / Contact (Reklam, Dmca, Telif vs):okaan9999@gmail.com
Forum