DivxDepo.NET - Film indir - Dizi indir - Oyun indir
Hoşgeldin, Ziyaretçi: Üye Ol
DivxDepo.Net'e Hoşgeldiniz :)
Umarım Aradığınızı Bulursunuz.İsteklerinizi İletişim Sayfamızdan bildirebilirsiniz.

DivxDepo.Net Önerdiklerimiz
Konuyu Oyla:
  • Toplam: 0 Oy - Ortalama: 0
  • 1
  • 2
  • 3
  • 4
  • 5
Have a Song on Your Lips (2015) 1080p BluRay x264 DTS-WiKi Konuyu Okuyanlar: 1 Ziyaretçi
#1
Have_a_Song_on_Your_Lips_2015_720p_Blu_Ray_x264_W.png

Have.a.Song.on.Your.Lips.2015.1080p.BluRay.x264.DTS-WiKi

Kod:
http://uploaded.net/file/26mzz5bj/Have.a.Song.on.Your.Lips.2015.1080p.BluRay.x264.DTS-WiKi.part07.rar
http://uploaded.net/file/oepkm0cm/Have.a.Song.on.Your.Lips.2015.1080p.BluRay.x264.DTS-WiKi.part02.rar
http://uploaded.net/file/co1vk9tt/Have.a.Song.on.Your.Lips.2015.1080p.BluRay.x264.DTS-WiKi.part08.rar
http://uploaded.net/file/u906888i/Have.a.Song.on.Your.Lips.2015.1080p.BluRay.x264.DTS-WiKi.part06.rar
http://uploaded.net/file/aph1gl8m/Have.a.Song.on.Your.Lips.2015.1080p.BluRay.x264.DTS-WiKi.part04.rar
http://uploaded.net/file/kc5mkfb8/Have.a.Song.on.Your.Lips.2015.1080p.BluRay.x264.DTS-WiKi.part10.rar
http://uploaded.net/file/665fbliy/Have.a.Song.on.Your.Lips.2015.1080p.BluRay.x264.DTS-WiKi.part09.rar
http://uploaded.net/file/s097tw56/Have.a.Song.on.Your.Lips.2015.1080p.BluRay.x264.DTS-WiKi.part11.rar
http://uploaded.net/file/ix28806k/Have.a.Song.on.Your.Lips.2015.1080p.BluRay.x264.DTS-WiKi.part05.rar
http://uploaded.net/file/c8c70t9g/Have.a.Song.on.Your.Lips.2015.1080p.BluRay.x264.DTS-WiKi.part01.rar
http://uploaded.net/file/nbfzb4zw/Have.a.Song.on.Your.Lips.2015.1080p.BluRay.x264.DTS-WiKi.part03.rar
http://uploaded.net/file/xzlvqzp1/Have.a.Song.on.Your.Lips.2015.1080p.BluRay.x264.DTS-WiKi.part12.rar

Kod:
http://uploadrocket.net/60fi97mknzot/Have.a.Song.on.Your.Lips.2015.1080p.BluRay.x264.DTS-WiKi.part01.rar.html
http://uploadrocket.net/c8tn24tw2phz/Have.a.Song.on.Your.Lips.2015.1080p.BluRay.x264.DTS-WiKi.part02.rar.html
http://uploadrocket.net/f66s9k52e1w8/Have.a.Song.on.Your.Lips.2015.1080p.BluRay.x264.DTS-WiKi.part03.rar.html
http://uploadrocket.net/q497mi6bfqkz/Have.a.Song.on.Your.Lips.2015.1080p.BluRay.x264.DTS-WiKi.part04.rar.html
http://uploadrocket.net/p4si1t7c3ped/Have.a.Song.on.Your.Lips.2015.1080p.BluRay.x264.DTS-WiKi.part05.rar.html
http://uploadrocket.net/1k3lszvauxki/Have.a.Song.on.Your.Lips.2015.1080p.BluRay.x264.DTS-WiKi.part06.rar.html
http://uploadrocket.net/1f8dbieqtxle/Have.a.Song.on.Your.Lips.2015.1080p.BluRay.x264.DTS-WiKi.part07.rar.html
http://uploadrocket.net/734qpcor4zm5/Have.a.Song.on.Your.Lips.2015.1080p.BluRay.x264.DTS-WiKi.part08.rar.html
http://uploadrocket.net/luxkz7zqpsqx/Have.a.Song.on.Your.Lips.2015.1080p.BluRay.x264.DTS-WiKi.part09.rar.html
http://uploadrocket.net/qm72l7m6ee9r/Have.a.Song.on.Your.Lips.2015.1080p.BluRay.x264.DTS-WiKi.part10.rar.html
http://uploadrocket.net/hunbob945qpj/Have.a.Song.on.Your.Lips.2015.1080p.BluRay.x264.DTS-WiKi.part11.rar.html
http://uploadrocket.net/dvw305cjstpt/Have.a.Song.on.Your.Lips.2015.1080p.BluRay.x264.DTS-WiKi.part12.rar.html

Kod:
http://imdb.com/title/tt3855730/

42398758920780474487_thumb.png
58395409636288824501_thumb.png
11759443537378193233_thumb.png
27725403007945456267_thumb.png
01731801570227218841_thumb.png

Kod:
Video
ID                                       : 1
Format                                   : AVC
Format/Info                              : Advanced Video Codec
Format profile                           : High@L4.1
Format settings, CABAC                   : Yes
Format settings, ReFrames                : 4 frames
Codec ID                                 : V_MPEG4/ISO/AVC
Duration                                 : 2h 11mn
Bit rate                                 : 11.0 Mbps
Width                                    : 1 920 pixels
Height                                   : 1 036 pixels
Display aspect ratio                     : 1.85:1
Frame rate mode                          : Constant
Frame rate                               : 23.976 fps
Color space                              : YUV
Chroma subsampling                       : 4:2:0
Bit depth                                : 8 bits
Scan type                                : Progressive
Bits/(Pixel*Frame)                       : 0.231
Stream size                              : 9.90 GiB (86%)
Writing library                          : x264 core 129 r2245+704+36 8e61944 tMod+MixAQ [8-bit@4:2:0 X86_64]
Encoding settings                        : cabac=1 / ref=4 / deblock=1:-3:-3 / analyse=0x3:0x133 / me=umh / subme=11 / psy=1 / fade_compensate=0.00 / psy_rd=1.05:0.10 / mixed_ref=1 / me_range=32 / chroma_me=1 / trellis=2 / 8x8dct=1 / cqm=0 / deadzone=21,11 / fast_pskip=0 / chroma_qp_offset=-3 / threads=18 / lookahead_threads=3 / sliced_threads=0 / nr=0 / decimate=0 / interlaced=0 / bluray_compat=0 / constrained_intra=0 / fgo=0 / bframes=10 / b_pyramid=2 / b_adapt=2 / b_bias=0 / direct=3 / weightb=1 / open_gop=0 / weightp=2 / keyint=250 / keyint_min=23 / scenecut=40 / intra_refresh=0 / rc_lookahead=80 / rc=2pass / mbtree=1 / bitrate=11000 / ratetol=1.0 / qcomp=0.70 / qpmin=0 / qpmax=69 / qpstep=4 / cplxblur=20.0 / qblur=0.5 / ip_ratio=1.40 / aq=1 / aq-strength=0.85 / aq-sensitivity=10.00 / aq-ifactor=1.00 / aq-pfactor=1.00 / aq-bfactor=1.00 / aq2=0
Language                                 : Japanese
Default                                  : Yes
Forced                                   : No
DURATION                                 : 02:11:34.887000000
NUMBER_OF_FRAMES                         : 189288
NUMBER_OF_BYTES                          : 10844025694
_STATISTICS_WRITING_APP                  : mkvmerge v8.2.0 ('World of Adventure') 64bit
_STATISTICS_WRITING_DATE_UTC             : 2015-09-10 15:26:53
_STATISTICS_TAGS                         : BPS DURATION NUMBER_OF_FRAMES NUMBER_OF_BYTES

Audio
ID                                       : 2
Format                                   : DTS
Format/Info                              : Digital Theater Systems
Mode                                     : 16
Format settings, Endianness              : Big
Codec ID                                 : A_DTS
Duration                                 : 2h 11mn
Bit rate mode                            : Constant
Bit rate                                 : 1 509 Kbps
Channel(s)                               : 6 channels
Channel positions                        : Front: L C R, Side: L R, LFE
Sampling rate                            : 48.0 KHz
Bit depth                                : 24 bits
Compression mode                         : Lossy
Stream size                              : 1.39 GiB (12%)
Language                                 : Japanese
Default                                  : Yes
Forced                                   : No

Text #1
ID                                       : 3
Format                                   : ASS
Codec ID                                 : S_TEXT/ASS
Codec ID/Info                            : Advanced Sub Station Alpha
Compression mode                         : Lossless
Title                                    : Simplified
Language                                 : Chinese
Default                                  : Yes
Forced                                   : No

Text #2
ID                                       : 4
Format                                   : ASS
Codec ID                                 : S_TEXT/ASS
Codec ID/Info                            : Advanced Sub Station Alpha
Compression mode                         : Lossless
Title                                    : Traditional
Language                                 : Chinese
Default                                  : No
Forced                                   : No
Ara
Cevapla


Konu ile Alakalı Benzer Konular
Konular Yazar Yorumlar Okunma Son Yorum
  Ben Hur | 2016 | 720p | BluRay | x264 | GECKOS breath-10 0 62 27-11-2016, Saat: 12:44
Son Yorum: breath-10
  The Whole Truth | 2016 | 720p | BluRay | x264 breath-10 0 182 27-11-2016, Saat: 12:34
Son Yorum: breath-10
  Jason Bourne | 2016 | 720p | BluRay | x264 | SPARKS breath-10 0 48 18-11-2016, Saat: 19:47
Son Yorum: breath-10
  Suicide Squad | 2016 | 1080p | WEB-DL | H264 | AC3 | EVO breath-10 0 51 15-11-2016, Saat: 23:34
Son Yorum: breath-10
  Mechanic Resurrection | 2016 | 720p | BluRay | x264 | DD5 1 | HDC breath-10 0 65 10-11-2016, Saat: 21:10
Son Yorum: breath-10

Hızlı Menü:

Hakkımızda
Sitemizde yer alan tüm videolar, filmler kaynak kodları ile Turbobit, Uploaded, Ul.to v.b. dosya paylaşım sitelerinden alınmaktadır. Telif hakları sorumluluğu bu sitelere aittir. Dosyaların hiç biri sunucularımızda bulunmamaktadır. Yine de hak sahiplerinin talep etmesi halinde istenen içerik siteden kaldırılabilir. İletişim adresi sitemizde mevcuttur. İletişim / Contact (Reklam, Dmca, Telif vs):okaan9999@gmail.com
Forum