DivxDepo.NET - Film indir - Dizi indir - Oyun indir
Hoşgeldin, Ziyaretçi: Üye Ol
DivxDepo.Net'e Hoşgeldiniz :)
Umarım Aradığınızı Bulursunuz.İsteklerinizi İletişim Sayfamızdan bildirebilirsiniz.

DivxDepo.Net Önerdiklerimiz
Konuyu Oyla:
  • Toplam: 0 Oy - Ortalama: 0
  • 1
  • 2
  • 3
  • 4
  • 5
Friends with Benefits (2011) 1080p BluRay x264 DTS-FGT Konuyu Okuyanlar: 1 Ziyaretçi
#1
Friends_with_Benefits_2011_1080p_Blu_Ray_x264_DTS.png

Friends.with.Benefits.2011.1080p.BluRay.x264.DTS-FGT

Kod:
http://uploaded.net/file/ape3a0np/Friends.with.Benefits.2011.1080p.BluRay.x264.DTS-FGT.part06.rar
http://uploaded.net/file/lvn3yjne/Friends.with.Benefits.2011.1080p.BluRay.x264.DTS-FGT.part03.rar
http://uploaded.net/file/eessz01k/Friends.with.Benefits.2011.1080p.BluRay.x264.DTS-FGT.part07.rar
http://uploaded.net/file/s1gzk2jt/Friends.with.Benefits.2011.1080p.BluRay.x264.DTS-FGT.part09.rar
http://uploaded.net/file/b24kg6p1/Friends.with.Benefits.2011.1080p.BluRay.x264.DTS-FGT.part04.rar
http://uploaded.net/file/bbmet0ko/Friends.with.Benefits.2011.1080p.BluRay.x264.DTS-FGT.part01.rar
http://uploaded.net/file/xzr3eeyz/Friends.with.Benefits.2011.1080p.BluRay.x264.DTS-FGT.part10.rar
http://uploaded.net/file/ukvfebh8/Friends.with.Benefits.2011.1080p.BluRay.x264.DTS-FGT.part05.rar
http://uploaded.net/file/8b8bjx3g/Friends.with.Benefits.2011.1080p.BluRay.x264.DTS-FGT.part02.rar
http://uploaded.net/file/0mu6ke7q/Friends.with.Benefits.2011.1080p.BluRay.x264.DTS-FGT.part08.rar
http://uploaded.net/file/sz1d99kf/Friends.with.Benefits.2011.1080p.BluRay.x264.DTS-FGT.part11.rar

Kod:
http://uploadrocket.net/zh9xkx3mcel0/Friends.with.Benefits.2011.1080p.BluRay.x264.DTS-FGT.part01.rar.html
http://uploadrocket.net/l84xxprhxe6i/Friends.with.Benefits.2011.1080p.BluRay.x264.DTS-FGT.part02.rar.html
http://uploadrocket.net/4ujeilcbr5so/Friends.with.Benefits.2011.1080p.BluRay.x264.DTS-FGT.part03.rar.html
http://uploadrocket.net/8wryj9icouk9/Friends.with.Benefits.2011.1080p.BluRay.x264.DTS-FGT.part04.rar.html
http://uploadrocket.net/luxu2vp78c7a/Friends.with.Benefits.2011.1080p.BluRay.x264.DTS-FGT.part05.rar.html
http://uploadrocket.net/m19f562ouqdh/Friends.with.Benefits.2011.1080p.BluRay.x264.DTS-FGT.part06.rar.html
http://uploadrocket.net/65ecx108ap2z/Friends.with.Benefits.2011.1080p.BluRay.x264.DTS-FGT.part07.rar.html
http://uploadrocket.net/tpqsuss0i0xw/Friends.with.Benefits.2011.1080p.BluRay.x264.DTS-FGT.part08.rar.html
http://uploadrocket.net/0uncqv0e8y48/Friends.with.Benefits.2011.1080p.BluRay.x264.DTS-FGT.part09.rar.html
http://uploadrocket.net/kvyksjxxibvz/Friends.with.Benefits.2011.1080p.BluRay.x264.DTS-FGT.part10.rar.html
http://uploadrocket.net/sylf2fmexke1/Friends.with.Benefits.2011.1080p.BluRay.x264.DTS-FGT.part11.rar.html

Kod:
http://imdb.com/title/tt1632708/

39730274898663111856_thumb.png
85272358055335207234_thumb.png
94967647297603763574_thumb.png
12556985558541534115_thumb.png
10370944404887942496_thumb.png

Kod:
Video
ID                                       : 1
Format                                   : AVC
Format/Info                              : Advanced Video Codec
Format profile                           : High@L4.1
Format settings, CABAC                   : Yes
Format settings, ReFrames                : 4 frames
Codec ID                                 : V_MPEG4/ISO/AVC
Duration                                 : 1h 49mn
Bit rate                                 : 11.5 Mbps
Width                                    : 1 920 pixels
Height                                   : 804 pixels
Display aspect ratio                     : 2.40:1
Frame rate mode                          : Constant
Frame rate                               : 23.976 fps
Color space                              : YUV
Chroma subsampling                       : 4:2:0
Bit depth                                : 8 bits
Scan type                                : Progressive
Bits/(Pixel*Frame)                       : 0.311
Stream size                              : 8.59 GiB (86%)
Writing library                          : x264 core 116 r2057 0ba8a9c
Encoding settings                        : cabac=1 / ref=3 / deblock=1:-3:-3 / analyse=0x3:0x133 / me=tesa / subme=10 / psy=1 / psy_rd=1.05:0.05 / mixed_ref=1 / me_range=32 / chroma_me=1 / trellis=2 / 8x8dct=1 / cqm=0 / deadzone=21,11 / fast_pskip=0 / chroma_qp_offset=-3 / threads=18 / sliced_threads=0 / nr=0 / decimate=0 / interlaced=0 / bluray_compat=0 / constrained_intra=0 / bframes=7 / b_pyramid=2 / b_adapt=1 / b_bias=0 / direct=3 / weightb=1 / open_gop=0 / weightp=2 / keyint=250 / keyint_min=23 / scenecut=40 / intra_refresh=0 / rc_lookahead=150 / rc=2pass / mbtree=0 / bitrate=11500 / ratetol=1.0 / qcomp=0.65 / qpmin=0 / qpmax=40 / qpstep=4 / cplxblur=20.0 / qblur=0.5 / vbv_maxrate=50000 / vbv_bufsize=50000 / nal_hrd=none / ip_ratio=1.25 / pb_ratio=1.25 / aq=1:0.90
Language                                 : English
Default                                  : Yes
Forced                                   : No

Audio
ID                                       : 2
Format                                   : DTS
Format/Info                              : Digital Theater Systems
Mode                                     : 16
Format settings, Endianness              : Big
Codec ID                                 : A_DTS
Duration                                 : 1h 49mn
Bit rate mode                            : Constant
Bit rate                                 : 1 509 Kbps
Channel(s)                               : 6 channels
Channel positions                        : Front: L C R, Side: L R, LFE
Sampling rate                            : 48.0 KHz
Bit depth                                : 24 bits
Compression mode                         : Lossy
Stream size                              : 1.15 GiB (12%)
Language                                 : English
Default                                  : Yes
Forced                                   : No

Text #1
ID                                       : 3
Format                                   : UTF-8
Codec ID                                 : S_TEXT/UTF8
Codec ID/Info                            : UTF-8 Plain Text
Language                                 : English
Default                                  : No
Forced                                   : No

Text #2
ID                                       : 4
Format                                   : UTF-8
Codec ID                                 : S_TEXT/UTF8
Codec ID/Info                            : UTF-8 Plain Text
Language                                 : Spanish
Default                                  : No
Forced                                   : No
Ara
Cevapla


Konu ile Alakalı Benzer Konular
Konular Yazar Yorumlar Okunma Son Yorum
  Ben Hur | 2016 | 720p | BluRay | x264 | GECKOS breath-10 0 31 27-11-2016, Saat: 12:44
Son Yorum: breath-10
  The Whole Truth | 2016 | 720p | BluRay | x264 breath-10 0 172 27-11-2016, Saat: 12:34
Son Yorum: breath-10
  Jason Bourne | 2016 | 720p | BluRay | x264 | SPARKS breath-10 0 34 18-11-2016, Saat: 19:47
Son Yorum: breath-10
  Suicide Squad | 2016 | 1080p | WEB-DL | H264 | AC3 | EVO breath-10 0 37 15-11-2016, Saat: 23:34
Son Yorum: breath-10
  Mechanic Resurrection | 2016 | 720p | BluRay | x264 | DD5 1 | HDC breath-10 0 54 10-11-2016, Saat: 21:10
Son Yorum: breath-10

Hızlı Menü:

Hakkımızda
Sitemizde yer alan tüm videolar, filmler kaynak kodları ile Turbobit, Uploaded, Ul.to v.b. dosya paylaşım sitelerinden alınmaktadır. Telif hakları sorumluluğu bu sitelere aittir. Dosyaların hiç biri sunucularımızda bulunmamaktadır. Yine de hak sahiplerinin talep etmesi halinde istenen içerik siteden kaldırılabilir. İletişim adresi sitemizde mevcuttur. İletişim / Contact (Reklam, Dmca, Telif vs):okaan9999@gmail.com
Forum