DivxDepo.NET - Film indir - Dizi indir - Oyun indir
Hoşgeldin, Ziyaretçi: Üye Ol
DivxDepo.Net'e Hoşgeldiniz :)
Umarım Aradığınızı Bulursunuz.İsteklerinizi İletişim Sayfamızdan bildirebilirsiniz.

DivxDepo.Net Önerdiklerimiz
Konuyu Oyla:
  • Toplam: 0 Oy - Ortalama: 0
  • 1
  • 2
  • 3
  • 4
  • 5
Essex Boys Law Of Survival (2015) LIMITED 720p BluRay X264-GHOULS Konuyu Okuyanlar: 1 Ziyaretçi
#1
Essex_Boys_Law_Of_Survival_2015_LIMITED_1080p_Bl.png

Essex.Boys.Law.Of.Survival.2015.LIMITED.720p.BluRay.X264-GHOULS


Kod:
http://uploaded.net/file/1qn7niok/Essex.Boys.Laws.Of.Survival.2015.LIMITED.720p.BluRay.X264-GHOULS.part2.rar
http://uploaded.net/file/6e1ya6dc/Essex.Boys.Laws.Of.Survival.2015.LIMITED.720p.BluRay.X264-GHOULS.part4.rar
http://uploaded.net/file/l0uzxwno/Essex.Boys.Laws.Of.Survival.2015.LIMITED.720p.BluRay.X264-GHOULS.part5.rar
http://uploaded.net/file/2ifl27nv/Essex.Boys.Laws.Of.Survival.2015.LIMITED.720p.BluRay.X264-GHOULS.part3.rar
http://uploaded.net/file/jj53woe8/Essex.Boys.Laws.Of.Survival.2015.LIMITED.720p.BluRay.X264-GHOULS.part1.rar


Kod:
http://uploadrocket.net/qfko57jz2g4x/Essex.Boys.Laws.Of.Survival.2015.LIMITED.720p.BluRay.X264-GHOULS.part1.rar.html
http://uploadrocket.net/cpu3pu5q8yxo/Essex.Boys.Laws.Of.Survival.2015.LIMITED.720p.BluRay.X264-GHOULS.part2.rar.html
http://uploadrocket.net/3ocrk69zo03g/Essex.Boys.Laws.Of.Survival.2015.LIMITED.720p.BluRay.X264-GHOULS.part3.rar.html
http://uploadrocket.net/a47xhbsk9mie/Essex.Boys.Laws.Of.Survival.2015.LIMITED.720p.BluRay.X264-GHOULS.part4.rar.html
http://uploadrocket.net/lqrquxn2cxna/Essex.Boys.Laws.Of.Survival.2015.LIMITED.720p.BluRay.X264-GHOULS.part5.rar.html


Kod:
http://imdb.com/title/tt4608574/


Essex_Boys_Laws_Of_Survival_2015_LIMITED_720p_Bl.jpg

Kod:
Video
ID                                       : 1
Format                                   : AVC
Format/Info                              : Advanced Video Codec
Format profile                           : High@L4.1
Format settings, CABAC                   : Yes
Format settings, ReFrames                : 4 frames
Codec ID                                 : V_MPEG4/ISO/AVC
Duration                                 : 1h 31mn
Bit rate                                 : 5 341 Kbps
Width                                    : 1 280 pixels
Height                                   : 720 pixels
Display aspect ratio                     : 16:9
Frame rate mode                          : Constant
Frame rate                               : 24.000 fps
Color space                              : YUV
Chroma subsampling                       : 4:2:0
Bit depth                                : 8 bits
Scan type                                : Progressive
Bits/(Pixel*Frame)                       : 0.241
Stream size                              : 3.32 GiB (76%)
Writing library                          : x264 core 148 r2597 e86f3a1
Encoding settings                        : cabac=1 / ref=4 / deblock=1:-1:-1 / analyse=0x3:0x133 / me=umh / subme=7 / psy=1 / psy_rd=1.00:0.00 / mixed_ref=1 / me_range=16 / chroma_me=1 / trellis=1 / 8x8dct=1 / cqm=0 / deadzone=21,11 / fast_pskip=0 / chroma_qp_offset=-2 / threads=6 / lookahead_threads=1 / sliced_threads=0 / nr=0 / decimate=1 / interlaced=0 / bluray_compat=0 / constrained_intra=0 / bframes=3 / b_pyramid=2 / b_adapt=2 / b_bias=0 / direct=3 / weightb=1 / open_gop=0 / weightp=2 / keyint=240 / keyint_min=24 / scenecut=40 / intra_refresh=0 / rc_lookahead=50 / rc=2pass / mbtree=1 / bitrate=5341 / ratetol=1.0 / qcomp=0.60 / qpmin=10 / qpmax=51 / qpstep=4 / cplxblur=20.0 / qblur=0.5 / vbv_maxrate=62500 / vbv_bufsize=78125 / nal_hrd=none / filler=0 / ip_ratio=1.40 / aq=1:1.00
Default                                  : Yes
Forced                                   : No

Audio
ID                                       : 2
Format                                   : DTS
Format/Info                              : Digital Theater Systems
Mode                                     : 16
Format settings, Endianness              : Big
Codec ID                                 : A_DTS
Duration                                 : 1h 31mn
Bit rate mode                            : Constant
Bit rate                                 : 1 509 Kbps
Channel(s)                               : 6 channels
Channel positions                        : Front: L C R, Side: L R, LFE
Sampling rate                            : 48.0 KHz
Bit depth                                : 24 bits
Compression mode                         : Lossy
Stream size                              : 986 MiB (22%)
Language                                 : English
Default                                  : Yes
Forced                                   : No
193298_o0025.png
Ara
Cevapla


Konu ile Alakalı Benzer Konular
Konular Yazar Yorumlar Okunma Son Yorum
  Ben Hur | 2016 | 720p | BluRay | x264 | GECKOS breath-10 0 50 27-11-2016, Saat: 12:44
Son Yorum: breath-10
  Ben Hur | 2016 | 720p | BRRip | X264 | AC3 | EVO breath-10 0 29 27-11-2016, Saat: 12:42
Son Yorum: breath-10
  The Whole Truth | 2016 | 720p | BluRay | x264 breath-10 0 173 27-11-2016, Saat: 12:34
Son Yorum: breath-10
  Jason Bourne | 2016 | 720p | BluRay | x264 | SPARKS breath-10 0 37 18-11-2016, Saat: 19:47
Son Yorum: breath-10
  Jason Bourne | 2016 | 720p | BRRIP | x264 | AC3 | MAJESTIC breath-10 0 28 18-11-2016, Saat: 19:45
Son Yorum: breath-10

Hızlı Menü:

Hakkımızda
Sitemizde yer alan tüm videolar, filmler kaynak kodları ile Turbobit, Uploaded, Ul.to v.b. dosya paylaşım sitelerinden alınmaktadır. Telif hakları sorumluluğu bu sitelere aittir. Dosyaların hiç biri sunucularımızda bulunmamaktadır. Yine de hak sahiplerinin talep etmesi halinde istenen içerik siteden kaldırılabilir. İletişim adresi sitemizde mevcuttur. İletişim / Contact (Reklam, Dmca, Telif vs):okaan9999@gmail.com
Forum