DivxDepo.NET - Film indir - Dizi indir - Oyun indir
Hoşgeldin, Ziyaretçi: Üye Ol
DivxDepo.Net'e Hoşgeldiniz :)
Umarım Aradığınızı Bulursunuz.İsteklerinizi İletişim Sayfamızdan bildirebilirsiniz.

DivxDepo.Net Önerdiklerimiz
Konuyu Oyla:
  • Toplam: 0 Oy - Ortalama: 0
  • 1
  • 2
  • 3
  • 4
  • 5
Enemy Below (1957) 1080p BluRay x264 DTS-FGT Konuyu Okuyanlar: 1 Ziyaretçi
#1
Enemy_Below_1957_1080p_Blu_Ray_x264_DTS_FGT.png

Enemy.Below.1957.1080p.BluRay.x264.DTS-FGT

Kod:
http://uploaded.net/file/aeszpyk4/Enemy.Below.1957.1080p.BluRay.x264.DTS-FGT.part01.rar
http://uploaded.net/file/zr2bcw2p/Enemy.Below.1957.1080p.BluRay.x264.DTS-FGT.part02.rar
http://uploaded.net/file/uvp1be9p/Enemy.Below.1957.1080p.BluRay.x264.DTS-FGT.part07.rar
http://uploaded.net/file/ksw9gwg6/Enemy.Below.1957.1080p.BluRay.x264.DTS-FGT.part06.rar
http://uploaded.net/file/5piftbgh/Enemy.Below.1957.1080p.BluRay.x264.DTS-FGT.part05.rar
http://uploaded.net/file/qhiy6foq/Enemy.Below.1957.1080p.BluRay.x264.DTS-FGT.part04.rar
http://uploaded.net/file/34clwt7g/Enemy.Below.1957.1080p.BluRay.x264.DTS-FGT.part03.rar
http://uploaded.net/file/xm30wjrp/Enemy.Below.1957.1080p.BluRay.x264.DTS-FGT.part09.rar
http://uploaded.net/file/iqwdsmor/Enemy.Below.1957.1080p.BluRay.x264.DTS-FGT.part08.rar
http://uploaded.net/file/6a7ahj89/Enemy.Below.1957.1080p.BluRay.x264.DTS-FGT.part10.rar
http://uploaded.net/file/r8hluvae/Enemy.Below.1957.1080p.BluRay.x264.DTS-FGT.part11.rar

Kod:
http://uploadrocket.net/f19ca9kcgcqr/Enemy.Below.1957.1080p.BluRay.x264.DTS-FGT.part01.rar.html
http://uploadrocket.net/wjrhbt4y4hp9/Enemy.Below.1957.1080p.BluRay.x264.DTS-FGT.part02.rar.html
http://uploadrocket.net/y1zzm5kr38u3/Enemy.Below.1957.1080p.BluRay.x264.DTS-FGT.part03.rar.html
http://uploadrocket.net/g3rkw344a1zi/Enemy.Below.1957.1080p.BluRay.x264.DTS-FGT.part04.rar.html
http://uploadrocket.net/wz2hkbwqb52v/Enemy.Below.1957.1080p.BluRay.x264.DTS-FGT.part05.rar.html
http://uploadrocket.net/ogccnubmqkjq/Enemy.Below.1957.1080p.BluRay.x264.DTS-FGT.part06.rar.html
http://uploadrocket.net/jbn8wepsc4ao/Enemy.Below.1957.1080p.BluRay.x264.DTS-FGT.part07.rar.html
http://uploadrocket.net/dbn6q047vtvy/Enemy.Below.1957.1080p.BluRay.x264.DTS-FGT.part08.rar.html
http://uploadrocket.net/um5ytgkwjkb7/Enemy.Below.1957.1080p.BluRay.x264.DTS-FGT.part09.rar.html
http://uploadrocket.net/iidybebfav9x/Enemy.Below.1957.1080p.BluRay.x264.DTS-FGT.part10.rar.html
http://uploadrocket.net/gzaqk9pjqhvn/Enemy.Below.1957.1080p.BluRay.x264.DTS-FGT.part11.rar.html

Kod:
http://imdb.com/title/tt0050356/

41089031579778801020_thumb.png
30626472256965229323_thumb.png
72263130175737555916_thumb.png
01570614382502767232_thumb.png
01293484924583781689_thumb.png

Kod:
Video
ID                                       : 1
Format                                   : AVC
Format/Info                              : Advanced Video Codec
Format profile                           : High@L4.1
Format settings, CABAC                   : Yes
Format settings, ReFrames                : 5 frames
Codec ID                                 : V_MPEG4/ISO/AVC
Duration                                 : 1h 37mn
Bit rate                                 : 12.6 Mbps
Width                                    : 1 918 pixels
Height                                   : 816 pixels
Display aspect ratio                     : 2.35:1
Frame rate mode                          : Constant
Frame rate                               : 23.976 fps
Color space                              : YUV
Chroma subsampling                       : 4:2:0
Bit depth                                : 8 bits
Scan type                                : Progressive
Bits/(Pixel*Frame)                       : 0.335
Stream size                              : 8.57 GiB (88%)
Writing library                          : x264 core 146 r0+2586 e393126 t_mod_Custom [8-bit@all X86_64]
Encoding settings                        : cabac=1 / ref=5 / deblock=1:-3:-3 / analyse=0x3:0x133 / me=umh / subme=11 / psy=1 / fade_compensate=0.00 / psy_rd=1.05:0.00 / mixed_ref=1 / me_range=32 / chroma_me=1 / trellis=2 / 8x8dct=1 / cqm=0 / deadzone=21,11 / fast_pskip=0 / chroma_qp_offset=-2 / threads=12 / lookahead_threads=3 / sliced_threads=0 / nr=0 / decimate=1 / interlaced=0 / bluray_compat=0 / constrained_intra=0 / fgo=0 / bframes=12 / b_pyramid=2 / b_adapt=2 / b_bias=0 / direct=3 / weightb=1 / open_gop=0 / weightp=2 / keyint=240 / keyint_min=23 / scenecut=40 / intra_refresh=0 / rc=crf / mbtree=0 / crf=17.5000 / qcomp=0.70 / qpmin=0:0:0 / qpmax=69:69:69 / qpstep=4 / ip_ratio=1.40 / pb_ratio=1.30 / aq=1:0.70 / aq-sensitivity=10.00 / aq-factor=1.00:1.00:1.00 / aq2=0 / aq3=0
Language                                 : English
Default                                  : Yes
Forced                                   : No

Audio
ID                                       : 2
Format                                   : DTS
Format/Info                              : Digital Theater Systems
Mode                                     : 16
Format settings, Endianness              : Big
Codec ID                                 : A_DTS
Duration                                 : 1h 37mn
Bit rate mode                            : Constant
Bit rate                                 : 1 509 Kbps
Channel(s)                               : 4 channels
Channel positions                        : Front: L C R, Back: C
Sampling rate                            : 48.0 KHz
Bit depth                                : 24 bits
Compression mode                         : Lossy
Stream size                              : 1.03 GiB (11%)
Language                                 : English
Default                                  : Yes
Forced                                   : No

Text
ID                                       : 3
Format                                   : UTF-8
Codec ID                                 : S_TEXT/UTF8
Codec ID/Info                            : UTF-8 Plain Text
Language                                 : English
Default                                  : No
Forced                                   : No
Ara
Cevapla


Konu ile Alakalı Benzer Konular
Konular Yazar Yorumlar Okunma Son Yorum
  Ben Hur | 2016 | 720p | BluRay | x264 | GECKOS breath-10 0 62 27-11-2016, Saat: 12:44
Son Yorum: breath-10
  The Whole Truth | 2016 | 720p | BluRay | x264 breath-10 0 182 27-11-2016, Saat: 12:34
Son Yorum: breath-10
  Jason Bourne | 2016 | 720p | BluRay | x264 | SPARKS breath-10 0 48 18-11-2016, Saat: 19:47
Son Yorum: breath-10
  Suicide Squad | 2016 | 1080p | WEB-DL | H264 | AC3 | EVO breath-10 0 51 15-11-2016, Saat: 23:34
Son Yorum: breath-10
  Mechanic Resurrection | 2016 | 720p | BluRay | x264 | DD5 1 | HDC breath-10 0 65 10-11-2016, Saat: 21:10
Son Yorum: breath-10

Hızlı Menü:

Hakkımızda
Sitemizde yer alan tüm videolar, filmler kaynak kodları ile Turbobit, Uploaded, Ul.to v.b. dosya paylaşım sitelerinden alınmaktadır. Telif hakları sorumluluğu bu sitelere aittir. Dosyaların hiç biri sunucularımızda bulunmamaktadır. Yine de hak sahiplerinin talep etmesi halinde istenen içerik siteden kaldırılabilir. İletişim adresi sitemizde mevcuttur. İletişim / Contact (Reklam, Dmca, Telif vs):okaan9999@gmail.com
Forum