DivxDepo.NET - Film indir - Dizi indir - Oyun indir
Hoşgeldin, Ziyaretçi: Üye Ol
DivxDepo.Net'e Hoşgeldiniz :)
Umarım Aradığınızı Bulursunuz.İsteklerinizi İletişim Sayfamızdan bildirebilirsiniz.

DivxDepo.Net Önerdiklerimiz
Konuyu Oyla:
  • Toplam: 0 Oy - Ortalama: 0
  • 1
  • 2
  • 3
  • 4
  • 5
Dr No (1962) 1080p BluRay x264-RoCKRioT Konuyu Okuyanlar: 1 Ziyaretçi
#1
Dr_No_1962_1080p_Blu_Ray_x264_Ro_CKRio_T.png

Dr.No.1962.1080p.BluRay.x264-RoCKRioT

Kod:
http://uploaded.net/file/jb7fa6uh/Dr.No.1962.1080p.BluRay.x264-RoCKRioT.part01.rar
http://uploaded.net/file/6pq2bdbc/Dr.No.1962.1080p.BluRay.x264-RoCKRioT.part05.rar
http://uploaded.net/file/qfkleta8/Dr.No.1962.1080p.BluRay.x264-RoCKRioT.part02.rar
http://uploaded.net/file/pfitnlkq/Dr.No.1962.1080p.BluRay.x264-RoCKRioT.part08.rar
http://uploaded.net/file/m9sjuvvw/Dr.No.1962.1080p.BluRay.x264-RoCKRioT.part07.rar
http://uploaded.net/file/9zclx7zn/Dr.No.1962.1080p.BluRay.x264-RoCKRioT.part06.rar
http://uploaded.net/file/4sfecigg/Dr.No.1962.1080p.BluRay.x264-RoCKRioT.part04.rar
http://uploaded.net/file/0b6yl80n/Dr.No.1962.1080p.BluRay.x264-RoCKRioT.part03.rar
http://uploaded.net/file/gvz09bd8/Dr.No.1962.1080p.BluRay.x264-RoCKRioT.part09.rar

Kod:
http://uploadrocket.net/fzsg3mwgq126/Dr.No.1962.1080p.BluRay.x264-RoCKRioT.part01.rar.html
http://uploadrocket.net/fruwglrfbho5/Dr.No.1962.1080p.BluRay.x264-RoCKRioT.part02.rar.html
http://uploadrocket.net/5zfviq9zx5gt/Dr.No.1962.1080p.BluRay.x264-RoCKRioT.part03.rar.html
http://uploadrocket.net/ntzuhewlsop1/Dr.No.1962.1080p.BluRay.x264-RoCKRioT.part04.rar.html
http://uploadrocket.net/x0gdowr63s70/Dr.No.1962.1080p.BluRay.x264-RoCKRioT.part05.rar.html
http://uploadrocket.net/q5mcoj1ek5gz/Dr.No.1962.1080p.BluRay.x264-RoCKRioT.part06.rar.html
http://uploadrocket.net/wtdk4488l7c4/Dr.No.1962.1080p.BluRay.x264-RoCKRioT.part07.rar.html
http://uploadrocket.net/ktxbh1ptf7nn/Dr.No.1962.1080p.BluRay.x264-RoCKRioT.part08.rar.html
http://uploadrocket.net/u3lmahqn8bsb/Dr.No.1962.1080p.BluRay.x264-RoCKRioT.part09.rar.html

Kod:
http://www.imdb.com/title/tt0055928/

30104932020886938046_thumb.png
29998158278466215501_thumb.png
80998434031799590703_thumb.png
22992524351832982154_thumb.png
75945786965747174825_thumb.png

Kod:
Video
ID                                       : 1
Format                                   : AVC
Format/Info                              : Advanced Video Codec
Format profile                           : High@L4.1
Format settings, CABAC                   : Yes
Format settings, ReFrames                : 5 frames
Codec ID                                 : V_MPEG4/ISO/AVC
Duration                                 : 1h 49mn
Bit rate                                 : 8 818 Kbps
Width                                    : 1 920 pixels
Height                                   : 1 072 pixels
Display aspect ratio                     : 16:9
Frame rate mode                          : Constant
Frame rate                               : 23.976 fps
Color space                              : YUV
Chroma subsampling                       : 4:2:0
Bit depth                                : 8 bits
Scan type                                : Progressive
Bits/(Pixel*Frame)                       : 0.179
Stream size                              : 6.61 GiB (83%)
Writing library                          : x264 core 65 r1074M b6bb3d4
Encoding settings                        : cabac=1 / ref=5 / deblock=1:0:0 / analyse=0x3:0x113 / me=umh / subme=7 / psy_rd=1.0:0.0 / mixed_ref=1 / me_range=16 / chroma_me=1 / trellis=1 / 8x8dct=1 / cqm=0 / deadzone=21,11 / chroma_qp_offset=-2 / threads=3 / nr=0 / decimate=0 / mbaff=0 / bframes=3 / b_pyramid=1 / b_adapt=1 / b_bias=0 / direct=1 / wpredb=1 / keyint=250 / keyint_min=25 / scenecut=40(pre) / rc=2pass / bitrate=8818 / ratetol=1.0 / qcomp=0.60 / qpmin=10 / qpmax=51 / qpstep=4 / cplxblur=20.0 / qblur=0.5 / ip_ratio=1.40 / pb_ratio=1.30 / aq=1:1.00
Language                                 : English
Default                                  : Yes
Forced                                   : No

Audio
ID                                       : 2
Format                                   : DTS
Format/Info                              : Digital Theater Systems
Mode                                     : 16
Format settings, Endianness              : Big
Codec ID                                 : A_DTS
Duration                                 : 1h 49mn
Bit rate mode                            : Constant
Bit rate                                 : 1 509 Kbps
Channel(s)                               : 6 channels
Channel positions                        : Front: L C R, Side: L R, LFE
Sampling rate                            : 48.0 KHz
Bit depth                                : 24 bits
Compression mode                         : Lossy
Stream size                              : 1.16 GiB (15%)
Title                                    : PID 4352
Language                                 : English
Default                                  : No
Forced                                   : No
Ara
Cevapla


Konu ile Alakalı Benzer Konular
Konular Yazar Yorumlar Okunma Son Yorum
  Ben Hur | 2016 | 720p | BluRay | x264 | GECKOS breath-10 0 32 27-11-2016, Saat: 12:44
Son Yorum: breath-10
  The Whole Truth | 2016 | 720p | BluRay | x264 breath-10 0 172 27-11-2016, Saat: 12:34
Son Yorum: breath-10
  Jason Bourne | 2016 | 720p | BluRay | x264 | SPARKS breath-10 0 36 18-11-2016, Saat: 19:47
Son Yorum: breath-10
  Suicide Squad | 2016 | 1080p | WEB-DL | H264 | AC3 | EVO breath-10 0 37 15-11-2016, Saat: 23:34
Son Yorum: breath-10
  Mechanic Resurrection | 2016 | 720p | BluRay | x264 | DD5 1 | HDC breath-10 0 54 10-11-2016, Saat: 21:10
Son Yorum: breath-10

Hızlı Menü:

Hakkımızda
Sitemizde yer alan tüm videolar, filmler kaynak kodları ile Turbobit, Uploaded, Ul.to v.b. dosya paylaşım sitelerinden alınmaktadır. Telif hakları sorumluluğu bu sitelere aittir. Dosyaların hiç biri sunucularımızda bulunmamaktadır. Yine de hak sahiplerinin talep etmesi halinde istenen içerik siteden kaldırılabilir. İletişim adresi sitemizde mevcuttur. İletişim / Contact (Reklam, Dmca, Telif vs):okaan9999@gmail.com
Forum