DivxDepo.NET - Film indir - Dizi indir - Oyun indir
Hoşgeldin, Ziyaretçi: Üye Ol
DivxDepo.Net'e Hoşgeldiniz :)
Umarım Aradığınızı Bulursunuz.İsteklerinizi İletişim Sayfamızdan bildirebilirsiniz.

DivxDepo.Net Önerdiklerimiz
Konuyu Oyla:
  • Toplam: 0 Oy - Ortalama: 0
  • 1
  • 2
  • 3
  • 4
  • 5
Doomsday (2008) UNRATED 1080p BluRay x264 DTS-FHD Konuyu Okuyanlar: 1 Ziyaretçi
#1
Doomsday_2008_UNRATED_1080p_Blu_Ray_x264_DTS_FHD.png

Doomsday.2008.UNRATED.1080p.BluRay.x264.DTS-FHD

Kod:
http://uploaded.net/file/gtdgu6ac/Doomsday.2008.UNRATED.1080p.BluRay.x264.DTS-FHD.part2.rar
http://uploaded.net/file/1ur76l90/Doomsday.2008.UNRATED.1080p.BluRay.x264.DTS-FHD.part7.rar
http://uploaded.net/file/c0l54oyu/Doomsday.2008.UNRATED.1080p.BluRay.x264.DTS-FHD.part6.rar
http://uploaded.net/file/ljza68dp/Doomsday.2008.UNRATED.1080p.BluRay.x264.DTS-FHD.part8.rar
http://uploaded.net/file/l5v9wu2f/Doomsday.2008.UNRATED.1080p.BluRay.x264.DTS-FHD.part4.rar
http://uploaded.net/file/1tdy69te/Doomsday.2008.UNRATED.1080p.BluRay.x264.DTS-FHD.part3.rar
http://uploaded.net/file/k6knbcnu/Doomsday.2008.UNRATED.1080p.BluRay.x264.DTS-FHD.part5.rar
http://uploaded.net/file/7kqb8eyp/Doomsday.2008.UNRATED.1080p.BluRay.x264.DTS-FHD.part1.rar

Kod:
http://uploadrocket.net/uh2fipe1c0ls/Doomsday.2008.UNRATED.1080p.BluRay.x264.DTS-FHD.part1.rar.html
http://uploadrocket.net/jfjzcrzrzjm8/Doomsday.2008.UNRATED.1080p.BluRay.x264.DTS-FHD.part2.rar.html
http://uploadrocket.net/dap7hxbhy2vu/Doomsday.2008.UNRATED.1080p.BluRay.x264.DTS-FHD.part3.rar.html
http://uploadrocket.net/ahv102g9puxl/Doomsday.2008.UNRATED.1080p.BluRay.x264.DTS-FHD.part4.rar.html
http://uploadrocket.net/19b8io0mdh3h/Doomsday.2008.UNRATED.1080p.BluRay.x264.DTS-FHD.part5.rar.html
http://uploadrocket.net/1cbdtthrnkco/Doomsday.2008.UNRATED.1080p.BluRay.x264.DTS-FHD.part6.rar.html
http://uploadrocket.net/5oa30fpo9dzm/Doomsday.2008.UNRATED.1080p.BluRay.x264.DTS-FHD.part7.rar.html
http://uploadrocket.net/esus0xu9nlns/Doomsday.2008.UNRATED.1080p.BluRay.x264.DTS-FHD.part8.rar.html

Kod:
http://rapidgator.net/file/cd4305a0a7de8fe2cd6c6f4ab06bd217/Doomsday.2008.UNRATED.1080p.BluRay.x264.DTS-FHD.part2.rar.html
http://rapidgator.net/file/e3c8fc1976f133da39893563d4fe1c03/Doomsday.2008.UNRATED.1080p.BluRay.x264.DTS-FHD.part3.rar.html
http://rapidgator.net/file/d1f4a4c43507785d73c30e7a2724d56d/Doomsday.2008.UNRATED.1080p.BluRay.x264.DTS-FHD.part6.rar.html
http://rapidgator.net/file/ee9a0094c606f8958140aa5a5983c37a/Doomsday.2008.UNRATED.1080p.BluRay.x264.DTS-FHD.part4.rar.html
http://rapidgator.net/file/a1d6a372769faf16de9c410e566fe956/Doomsday.2008.UNRATED.1080p.BluRay.x264.DTS-FHD.part7.rar.html
http://rapidgator.net/file/1e7bd154cae5d297924195d135725118/Doomsday.2008.UNRATED.1080p.BluRay.x264.DTS-FHD.part5.rar.html
http://rapidgator.net/file/b705cb15e6abb220c269ac96e57b7425/Doomsday.2008.UNRATED.1080p.BluRay.x264.DTS-FHD.part1.rar.html
http://rapidgator.net/file/756c30097304bfc5118b48a541742acb/Doomsday.2008.UNRATED.1080p.BluRay.x264.DTS-FHD.part8.rar.html

Kod:
http://imdb.com/title/tt0483607/

fhd_doomsday1080p_s.jpg

Kod:
Video
ID                                       : 1
Format                                   : AVC
Format/Info                              : Advanced Video Codec
Format profile                           : High@L4.1
Format settings, CABAC                   : Yes
Format settings, ReFrames                : 3 frames
Codec ID                                 : V_MPEG4/ISO/AVC
Duration                                 : 1h 52mn
Bit rate                                 : 8 075 Kbps
Width                                    : 1 920 pixels
Height                                   : 816 pixels
Display aspect ratio                     : 2.35:1
Frame rate mode                          : Constant
Frame rate                               : 24.000 fps
Color space                              : YUV
Chroma subsampling                       : 4:2:0
Bit depth                                : 8 bits
Scan type                                : Progressive
Bits/(Pixel*Frame)                       : 0.215
Stream size                              : 6.22 GiB (82%)
Writing library                          : x264 core 59 r826M 138601d
Encoding settings                        : cabac=1 / ref=1 / deblock=1:0:0 / analyse=0x3:0x113 / me=hex / subme=5 / me-prepass=0 / brdo=0 / mixed_ref=0 / me_range=16 / chroma_me=1 / trellis=1 / 8x8dct=1 / cqm=0 / deadzone=21,11 / chroma_qp_offset=0 / threads=3 / nr=0 / decimate=1 / mbaff=0 / bframes=3 / b_pyramid=1 / b_adapt=1 / b_bias=0 / direct=2 / wpredb=0 / bime=0 / keyint=250 / keyint_min=25 / scenecut=40(pre) / rc=2pass / bitrate=8075 / ratetol=1.0 / rceq='blurCplx^(1-qComp)' / qcomp=1.00 / qpmin=10 / qpmax=51 / qpstep=4 / cplxblur=20.0 / qblur=0.5 / ip_ratio=1.40 / pb_ratio=1.30 / aq=2:1.00
Language                                 : English
Default                                  : Yes
Forced                                   : No

Audio
ID                                       : 2
Format                                   : DTS
Format/Info                              : Digital Theater Systems
Mode                                     : 16
Format settings, Endianness              : Big
Codec ID                                 : A_DTS
Duration                                 : 1h 52mn
Bit rate mode                            : Constant
Bit rate                                 : 1 509 Kbps
Channel(s)                               : 6 channels
Channel positions                        : Front: L C R, Side: L R, LFE
Sampling rate                            : 48.0 KHz
Bit depth                                : 16 bits
Compression mode                         : Lossy
Stream size                              : 1.19 GiB (16%)
Language                                 : English
Default                                  : Yes
Forced                                   : No
Ara
Cevapla


Konu ile Alakalı Benzer Konular
Konular Yazar Yorumlar Okunma Son Yorum
  Good Kids | 2016 | 720p | BluRay | X264 | iNVANDRAREN breath-10 0 134 08-01-2017, Saat: 23:44
Son Yorum: breath-10
  The Girl on the Train | 2016 | 720p | BluRay | x264 | SPARKS breath-10 0 55 08-01-2017, Saat: 23:44
Son Yorum: breath-10
  Inferno - Cehennem | 2016 | 720p | BluRay | x264 | SPARKS breath-10 0 82 08-01-2017, Saat: 23:41
Son Yorum: breath-10
  Masterminds | 2016 | 720p | BluRay | X264 | AMIABLE breath-10 0 88 08-01-2017, Saat: 23:37
Son Yorum: breath-10
  Deepwater Horizon | 2016 | 720p | BluRay | x264 | SPARKS breath-10 0 178 04-01-2017, Saat: 21:29
Son Yorum: breath-10

Hızlı Menü:

Hakkımızda
Sitemizde yer alan tüm videolar, filmler kaynak kodları ile Turbobit, Uploaded, Ul.to v.b. dosya paylaşım sitelerinden alınmaktadır. Telif hakları sorumluluğu bu sitelere aittir. Dosyaların hiç biri sunucularımızda bulunmamaktadır. Yine de hak sahiplerinin talep etmesi halinde istenen içerik siteden kaldırılabilir. İletişim adresi sitemizde mevcuttur. İletişim / Contact (Reklam, Dmca, Telif vs):okaan9999@gmail.com
Forum