DivxDepo.NET - Film indir - Dizi indir - Oyun indir
Hoşgeldin, Ziyaretçi: Üye Ol
DivxDepo.Net'e Hoşgeldiniz :)
Umarım Aradığınızı Bulursunuz.İsteklerinizi İletişim Sayfamızdan bildirebilirsiniz.

DivxDepo.Net Önerdiklerimiz
Konuyu Oyla:
  • Toplam: 0 Oy - Ortalama: 0
  • 1
  • 2
  • 3
  • 4
  • 5
Donnie Brasco (1997) Extended Cut 1080p BluRay x264-HDMI Konuyu Okuyanlar: 1 Ziyaretçi
#1
Donnie_Brasco_1997_Extended_Cut_1080p_Blu_Ray_x26.png

Donnie.Brasco.1997.Extended.Cut.1080p.BluRay.x264-HDMI


Kod:
http://uploaded.net/file/0d2cl37j/Donnie.Brasco.1997.Extended.Cut.1080p.BluRay.x264-HDMI.part06.rar
http://uploaded.net/file/ry1xw466/Donnie.Brasco.1997.Extended.Cut.1080p.BluRay.x264-HDMI.part10.rar
http://uploaded.net/file/3jc0oblb/Donnie.Brasco.1997.Extended.Cut.1080p.BluRay.x264-HDMI.part08.rar
http://uploaded.net/file/28rvm0tb/Donnie.Brasco.1997.Extended.Cut.1080p.BluRay.x264-HDMI.part05.rar
http://uploaded.net/file/jjols2z4/Donnie.Brasco.1997.Extended.Cut.1080p.BluRay.x264-HDMI.part01.rar
http://uploaded.net/file/n3zm0x5j/Donnie.Brasco.1997.Extended.Cut.1080p.BluRay.x264-HDMI.part09.rar
http://uploaded.net/file/qgqjqagx/Donnie.Brasco.1997.Extended.Cut.1080p.BluRay.x264-HDMI.part03.rar
http://uploaded.net/file/efe26nlk/Donnie.Brasco.1997.Extended.Cut.1080p.BluRay.x264-HDMI.part12.rar
http://uploaded.net/file/hmnlypa5/Donnie.Brasco.1997.Extended.Cut.1080p.BluRay.x264-HDMI.part11.rar
http://uploaded.net/file/qs58sey6/Donnie.Brasco.1997.Extended.Cut.1080p.BluRay.x264-HDMI.part02.rar
http://uploaded.net/file/pn9n4jup/Donnie.Brasco.1997.Extended.Cut.1080p.BluRay.x264-HDMI.part04.rar
http://uploaded.net/file/9suldxlv/Donnie.Brasco.1997.Extended.Cut.1080p.BluRay.x264-HDMI.part07.rar


Kod:
http://uploadrocket.net/ywubm6svzb62/Donnie.Brasco.1997.Extended.Cut.1080p.BluRay.x264-HDMI.part01.rar.html
http://uploadrocket.net/j4i5pqbzzcl8/Donnie.Brasco.1997.Extended.Cut.1080p.BluRay.x264-HDMI.part02.rar.html
http://uploadrocket.net/wz7nd5oag8j1/Donnie.Brasco.1997.Extended.Cut.1080p.BluRay.x264-HDMI.part03.rar.html
http://uploadrocket.net/2gq8p3pla1br/Donnie.Brasco.1997.Extended.Cut.1080p.BluRay.x264-HDMI.part04.rar.html
http://uploadrocket.net/pu0mxfq1dn27/Donnie.Brasco.1997.Extended.Cut.1080p.BluRay.x264-HDMI.part05.rar.html
http://uploadrocket.net/eh6hyqtykpe4/Donnie.Brasco.1997.Extended.Cut.1080p.BluRay.x264-HDMI.part06.rar.html
http://uploadrocket.net/qll1smw67ixz/Donnie.Brasco.1997.Extended.Cut.1080p.BluRay.x264-HDMI.part07.rar.html
http://uploadrocket.net/v3rposygjwm9/Donnie.Brasco.1997.Extended.Cut.1080p.BluRay.x264-HDMI.part08.rar.html
http://uploadrocket.net/79v64axvvbo4/Donnie.Brasco.1997.Extended.Cut.1080p.BluRay.x264-HDMI.part09.rar.html
http://uploadrocket.net/g1jp1buod3be/Donnie.Brasco.1997.Extended.Cut.1080p.BluRay.x264-HDMI.part10.rar.html
http://uploadrocket.net/g8ylnukv2a1h/Donnie.Brasco.1997.Extended.Cut.1080p.BluRay.x264-HDMI.part11.rar.html
http://uploadrocket.net/soeiefic5syb/Donnie.Brasco.1997.Extended.Cut.1080p.BluRay.x264-HDMI.part12.rar.html


Kod:
http://rapidgator.net/file/4c743cea99ffe3f0052187749078a208/Donnie.Brasco.1997.Extended.Cut.1080p.BluRay.x264-HDMI.part11.rar.html
http://rapidgator.net/file/eab2f23be9b3181a3d431e4336f80768/Donnie.Brasco.1997.Extended.Cut.1080p.BluRay.x264-HDMI.part08.rar.html
http://rapidgator.net/file/87f843f5a2558fa68c907bbf975628f4/Donnie.Brasco.1997.Extended.Cut.1080p.BluRay.x264-HDMI.part06.rar.html
http://rapidgator.net/file/6f57ea4d5a9eb34dc7e0b451ce77e529/Donnie.Brasco.1997.Extended.Cut.1080p.BluRay.x264-HDMI.part01.rar.html
http://rapidgator.net/file/99fc317a46112123ff68a773f9040b12/Donnie.Brasco.1997.Extended.Cut.1080p.BluRay.x264-HDMI.part02.rar.html
http://rapidgator.net/file/120de32e92ce1176b4911116727a6ef4/Donnie.Brasco.1997.Extended.Cut.1080p.BluRay.x264-HDMI.part10.rar.html
http://rapidgator.net/file/36a1ea7335615f09d8a37d37fb7f2c3b/Donnie.Brasco.1997.Extended.Cut.1080p.BluRay.x264-HDMI.part05.rar.html
http://rapidgator.net/file/a892f7228221357b137965c568ce196f/Donnie.Brasco.1997.Extended.Cut.1080p.BluRay.x264-HDMI.part03.rar.html
http://rapidgator.net/file/10768f856b267f159a9abbf6db04ca90/Donnie.Brasco.1997.Extended.Cut.1080p.BluRay.x264-HDMI.part04.rar.html
http://rapidgator.net/file/5183e3de1685dcea50f1a570c2a743f5/Donnie.Brasco.1997.Extended.Cut.1080p.BluRay.x264-HDMI.part09.rar.html
http://rapidgator.net/file/a97dd1425328885084b09583702583e5/Donnie.Brasco.1997.Extended.Cut.1080p.BluRay.x264-HDMI.part07.rar.html
http://rapidgator.net/file/c903764205f59622823b69fc1758fc37/Donnie.Brasco.1997.Extended.Cut.1080p.BluRay.x264-HDMI.part12.rar.html


Kod:
http://imdb.com/title/tt0119008/


donnie_brasco_1997_extended_cut_1080p_bluray_x26.jpg

Kod:
Video
ID                                       : 1
Format                                   : AVC
Format/Info                              : Advanced Video Codec
Format profile                           : High@L4.1
Format settings, CABAC                   : Yes
Format settings, ReFrames                : 5 frames
Codec ID                                 : V_MPEG4/ISO/AVC
Duration                                 : 2h 27mn
Bit rate                                 : 10.0 Mbps
Width                                    : 1 920 pixels
Height                                   : 800 pixels
Display aspect ratio                     : 2.40:1
Frame rate mode                          : Constant
Frame rate                               : 23.976 fps
Color space                              : YUV
Chroma subsampling                       : 4:2:0
Bit depth                                : 8 bits
Scan type                                : Progressive
Bits/(Pixel*Frame)                       : 0.272
Stream size                              : 10.1 GiB (92%)
Writing library                          : x264 core 65 r1046M 71d34b4
Encoding settings                        : cabac=1 / ref=5 / deblock=1:0:0 / analyse=0x3:0x133 / me=umh / subme=7 / psy_rd=1.0:0.0 / mixed_ref=1 / me_range=16 / chroma_me=1 / trellis=1 / 8x8dct=1 / cqm=0 / deadzone=21,11 / chroma_qp_offset=-2 / threads=6 / nr=0 / decimate=1 / mbaff=0 / bframes=3 / b_pyramid=1 / b_adapt=1 / b_bias=0 / direct=1 / wpredb=1 / keyint=250 / keyint_min=25 / scenecut=40(pre) / rc=2pass / bitrate=10001 / ratetol=1.0 / qcomp=0.60 / qpmin=10 / qpmax=51 / qpstep=4 / cplxblur=20.0 / qblur=0.5 / ip_ratio=1.40 / pb_ratio=1.30 / aq=1:1.00
Language                                 : English
Default                                  : Yes
Forced                                   : No

Audio
ID                                       : 2
Format                                   : AC-3
Format/Info                              : Audio Coding 3
Mode extension                           : CM (complete main)
Format settings, Endianness              : Big
Codec ID                                 : A_AC3
Duration                                 : 2h 27mn
Bit rate mode                            : Constant
Bit rate                                 : 640 Kbps
Channel(s)                               : 6 channels
Channel positions                        : Front: L C R, Side: L R, LFE
Sampling rate                            : 48.0 KHz
Compression mode                         : Lossy
Stream size                              : 674 MiB (6%)
Default                                  : Yes
Forced                                   : No

Text #1
ID                                       : 3
Format                                   : UTF-8
Codec ID                                 : S_TEXT/UTF8
Codec ID/Info                            : UTF-8 Plain Text
Language                                 : English
Default                                  : Yes
Forced                                   : No

Text #2
ID                                       : 4
Format                                   : UTF-8
Codec ID                                 : S_TEXT/UTF8
Codec ID/Info                            : UTF-8 Plain Text
Language                                 : French
Default                                  : No
Forced                                   : No
193298_o0025.png
Ara
Cevapla


Konu ile Alakalı Benzer Konular
Konular Yazar Yorumlar Okunma Son Yorum
  Ben Hur | 2016 | 720p | BluRay | x264 | GECKOS breath-10 0 62 27-11-2016, Saat: 12:44
Son Yorum: breath-10
  The Whole Truth | 2016 | 720p | BluRay | x264 breath-10 0 182 27-11-2016, Saat: 12:34
Son Yorum: breath-10
  Jason Bourne | 2016 | 720p | BluRay | x264 | SPARKS breath-10 0 48 18-11-2016, Saat: 19:47
Son Yorum: breath-10
  Suicide Squad | 2016 | 1080p | WEB-DL | H264 | AC3 | EVO breath-10 0 51 15-11-2016, Saat: 23:34
Son Yorum: breath-10
  Mechanic Resurrection | 2016 | 720p | BluRay | x264 | DD5 1 | HDC breath-10 0 65 10-11-2016, Saat: 21:10
Son Yorum: breath-10

Hızlı Menü:

Hakkımızda
Sitemizde yer alan tüm videolar, filmler kaynak kodları ile Turbobit, Uploaded, Ul.to v.b. dosya paylaşım sitelerinden alınmaktadır. Telif hakları sorumluluğu bu sitelere aittir. Dosyaların hiç biri sunucularımızda bulunmamaktadır. Yine de hak sahiplerinin talep etmesi halinde istenen içerik siteden kaldırılabilir. İletişim adresi sitemizde mevcuttur. İletişim / Contact (Reklam, Dmca, Telif vs):okaan9999@gmail.com
Forum