DivxDepo.NET - Film indir - Dizi indir - Oyun indir
Hoşgeldin, Ziyaretçi: Üye Ol
DivxDepo.Net'e Hoşgeldiniz :)
Umarım Aradığınızı Bulursunuz.İsteklerinizi İletişim Sayfamızdan bildirebilirsiniz.

DivxDepo.Net Önerdiklerimiz
Konuyu Oyla:
  • Toplam: 0 Oy - Ortalama: 0
  • 1
  • 2
  • 3
  • 4
  • 5
Colette (2013) 1080p BluRay x264 DTS-FGT Konuyu Okuyanlar: 1 Ziyaretçi
#1
Colette_2013_1080p_Blu_Ray_x264_DTS_FGT.png

Colette.2013.1080p.BluRay.x264.DTS-FGT


Kod:
http://uploaded.net/file/kmzid2kp/Colette.2013.1080p.BluRay.x264.DTS-FGT.part1.rar
http://uploaded.net/file/clk3m0lm/Colette.2013.1080p.BluRay.x264.DTS-FGT.part5.rar
http://uploaded.net/file/2pcwebjc/Colette.2013.1080p.BluRay.x264.DTS-FGT.part3.rar
http://uploaded.net/file/bjn4hr95/Colette.2013.1080p.BluRay.x264.DTS-FGT.part4.rar
http://uploaded.net/file/a8rt18ct/Colette.2013.1080p.BluRay.x264.DTS-FGT.part6.rar
http://uploaded.net/file/u16anrek/Colette.2013.1080p.BluRay.x264.DTS-FGT.part2.rar
http://uploaded.net/file/lj06uj43/Colette.2013.1080p.BluRay.x264.DTS-FGT.part7.rar


Kod:
http://rapidgator.net/file/5b133e8d761b51104872732b1e6d4452/Colette.2013.1080p.BluRay.x264.DTS-FGT.part5.rar.html
http://rapidgator.net/file/0d9b48784649db9e74d887e3180b2ce6/Colette.2013.1080p.BluRay.x264.DTS-FGT.part3.rar.html
http://rapidgator.net/file/ec60eaf5025c442a698dd299f3bd78b0/Colette.2013.1080p.BluRay.x264.DTS-FGT.part4.rar.html
http://rapidgator.net/file/62bf3e1ce08103c3f033b1cb84a0a8cd/Colette.2013.1080p.BluRay.x264.DTS-FGT.part1.rar.html
http://rapidgator.net/file/22a22a0969e99e424abf54175f12e7fe/Colette.2013.1080p.BluRay.x264.DTS-FGT.part6.rar.html
http://rapidgator.net/file/86b61ee272d413e9b4e5ff614d90bdbb/Colette.2013.1080p.BluRay.x264.DTS-FGT.part2.rar.html
http://rapidgator.net/file/5356436784ad76864286ba884e1f4075/Colette.2013.1080p.BluRay.x264.DTS-FGT.part7.rar.html


Kod:
http://imdb.com/title/tt2679576/


70544471610478243735_thumb.png
92797073494434449570_thumb.png
89629803656406167520_thumb.png
75367146860544153808_thumb.png
18473290696871840340_thumb.png
31225426866969860346_thumb.png

Kod:
Video
ID                                       : 1
Format                                   : AVC
Format/Info                              : Advanced Video Codec
Format profile                           : High@L4.1
Format settings, CABAC                   : Yes
Format settings, ReFrames                : 5 frames
Codec ID                                 : V_MPEG4/ISO/AVC
Duration                                 : 2h 4mn
Bit rate                                 : 12.6 Mbps
Width                                    : 1 920 pixels
Height                                   : 804 pixels
Display aspect ratio                     : 2.40:1
Frame rate mode                          : Constant
Frame rate                               : 24.000 fps
Color space                              : YUV
Chroma subsampling                       : 4:2:0
Bit depth                                : 8 bits
Scan type                                : Progressive
Bits/(Pixel*Frame)                       : 0.341
Stream size                              : 11.0 GiB (88%)
Writing library                          : x264 core 140 r2377 1ca7bb9
Encoding settings                        : cabac=1 / ref=5 / deblock=1:-3:-3 / analyse=0x3:0x133 / me=tesa / subme=10 / psy=1 / psy_rd=1.05:0.00 / mixed_ref=1 / me_range=24 / chroma_me=1 / trellis=2 / 8x8dct=1 / cqm=0 / deadzone=21,11 / fast_pskip=0 / chroma_qp_offset=-2 / threads=12 / lookahead_threads=2 / sliced_threads=0 / nr=0 / decimate=0 / interlaced=0 / bluray_compat=0 / constrained_intra=0 / bframes=8 / b_pyramid=2 / b_adapt=2 / b_bias=0 / direct=3 / weightb=1 / open_gop=0 / weightp=2 / keyint=240 / keyint_min=24 / scenecut=40 / intra_refresh=0 / rc_lookahead=60 / rc=crf / mbtree=0 / crf=15.5 / qcomp=0.60 / qpmin=0 / qpmax=69 / qpstep=4 / vbv_maxrate=62500 / vbv_bufsize=78125 / crf_max=0.0 / nal_hrd=none / filler=0 / ip_ratio=1.30 / pb_ratio=1.10 / aq=1:0.75 / zones=505,1935,crf=13.5/12487,12642,crf=13.5/13071,13298,crf=13.5/14160,15209,crf=13.5/15541,15621,crf=13.5/15677,15840,crf=13.5/15955,16168,crf=13.5/16240,16262,crf=13.5/16762,17755,crf=13.5/19879,19944,crf=13.5/20033,20041,crf=13.5/20100,20143,crf=13.5/23685,23800,crf=13.5/27192,27385,crf=13.5/27672,27894,crf=13.5/28340,28583,crf=13.5/29051,29124,crf=13.5/29684,29971,crf=13.5/32689,32754,crf=13.5/32910,33009,crf=13.5/33175,33290,crf=13.5/33646,33693,crf=13.5/34093,34166,crf=13.5/34258,34391,crf=13.5/34537,34578,crf=13.5/34900,38146,crf=13.5/38326,38471,crf=13.5/38582,38734,crf=13.5/39040,39142,crf=13.5/39332,40133,crf=13.5/42107,45933,crf=13.5/48858,51864,crf=13.5/52373,52772,crf=13.5/55465,56104,crf=13.5/59312,59612,crf=13.5/67456,71423,crf=13.5/71607,71695,crf=13.5/74788,74951,crf=13.5/77389,77460,crf=13.5/79515,80141,crf=13.5/80925,83804,crf=13.5/89164,91321,crf=13.5/91766,92180,crf=13.5/92390,93916,crf=13.5/94746,96853,crf=13.5/100794,104753,crf=13.5/106258,111348,crf=13.5/111794,112593,crf=13.5/114139,119987crf=13.5/123194,123913,crf=13.5/125834,126080,crf=13.5/127477,128227,crf=13.5/129131,137307,crf=13.5/138011,138203,crf=13.5/139701,139955,crf=13.5/142112,142297,crf=13.5/144027,147910,crf=13.5/148655,148875,crf=13.5/153307,153799,crf=13.5/154142,155451,crf=13.5/157595,157649,crf=13.5/171360,171375,crf=13.5/171376,179725,crf=20
Language                                 : English
Default                                  : Yes
Forced                                   : No

Audio
ID                                       : 2
Format                                   : DTS
Format/Info                              : Digital Theater Systems
Mode                                     : 16
Format settings, Endianness              : Big
Codec ID                                 : A_DTS
Duration                                 : 2h 4mn
Bit rate mode                            : Constant
Bit rate                                 : 1 509 Kbps
Channel(s)                               : 6 channels
Channel positions                        : Front: L C R, Side: L R, LFE
Sampling rate                            : 48.0 KHz
Bit depth                                : 24 bits
Compression mode                         : Lossy
Stream size                              : 1.32 GiB (10%)
Language                                 : English
Default                                  : Yes
Forced                                   : No

Menu
00:00:00.000                             : en:
00:09:38.791                             : en:
00:24:44.583                             : en:
00:39:10.416                             : en:
00:50:28.916                             : en:
01:07:15.583                             : en:
01:18:39.833                             : en:
01:29:40.458                             : en:
01:43:29.958                             : en:
01:50:55.458                             : en:
Ara
Cevapla


Konu ile Alakalı Benzer Konular
Konular Yazar Yorumlar Okunma Son Yorum
  Ben Hur | 2016 | 720p | BluRay | x264 | GECKOS breath-10 0 30 27-11-2016, Saat: 12:44
Son Yorum: breath-10
  The Whole Truth | 2016 | 720p | BluRay | x264 breath-10 0 171 27-11-2016, Saat: 12:34
Son Yorum: breath-10
  Jason Bourne | 2016 | 720p | BluRay | x264 | SPARKS breath-10 0 33 18-11-2016, Saat: 19:47
Son Yorum: breath-10
  Suicide Squad | 2016 | 1080p | WEB-DL | H264 | AC3 | EVO breath-10 0 37 15-11-2016, Saat: 23:34
Son Yorum: breath-10
  Mechanic Resurrection | 2016 | 720p | BluRay | x264 | DD5 1 | HDC breath-10 0 54 10-11-2016, Saat: 21:10
Son Yorum: breath-10

Hızlı Menü:

Hakkımızda
Sitemizde yer alan tüm videolar, filmler kaynak kodları ile Turbobit, Uploaded, Ul.to v.b. dosya paylaşım sitelerinden alınmaktadır. Telif hakları sorumluluğu bu sitelere aittir. Dosyaların hiç biri sunucularımızda bulunmamaktadır. Yine de hak sahiplerinin talep etmesi halinde istenen içerik siteden kaldırılabilir. İletişim adresi sitemizde mevcuttur. İletişim / Contact (Reklam, Dmca, Telif vs):okaan9999@gmail.com
Forum