DivxDepo.NET - Film indir - Dizi indir - Oyun indir
Hoşgeldin, Ziyaretçi: Üye Ol
DivxDepo.Net'e Hoşgeldiniz :)
Umarım Aradığınızı Bulursunuz.İsteklerinizi İletişim Sayfamızdan bildirebilirsiniz.

DivxDepo.Net Önerdiklerimiz
Konuyu Oyla:
  • Toplam: 0 Oy - Ortalama: 0
  • 1
  • 2
  • 3
  • 4
  • 5
Cherrybomb (2009) 1080p BluRay x264 DTS-BestHD Konuyu Okuyanlar: 1 Ziyaretçi
#1
Cherrybomb_2009_1080p_Blu_Ray_x264_DTS_Best_HD.png

Cherrybomb.2009.1080p.BluRay.x264.DTS-BestHD

Kod:
http://uploaded.net/file/rs1hf9v6/Cherrybomb.2009.1080p.BluRay.x264.DTS-BestHD.part6.rar
http://uploaded.net/file/vf7dtd14/Cherrybomb.2009.1080p.BluRay.x264.DTS-BestHD.part5.rar
http://uploaded.net/file/er4as2jb/Cherrybomb.2009.1080p.BluRay.x264.DTS-BestHD.part3.rar
http://uploaded.net/file/otajjz45/Cherrybomb.2009.1080p.BluRay.x264.DTS-BestHD.part2.rar
http://uploaded.net/file/tngrlfv3/Cherrybomb.2009.1080p.BluRay.x264.DTS-BestHD.part4.rar
http://uploaded.net/file/aroznidu/Cherrybomb.2009.1080p.BluRay.x264.DTS-BestHD.part1.rar
http://uploaded.net/file/4caduidn/Cherrybomb.2009.1080p.BluRay.x264.DTS-BestHD.part7.rar

Kod:
http://imdb.com/title/tt1248971/

29860168576367765865_thumb.png
03735122007816012708_thumb.png
74916859565432980367_thumb.png
06642135391104176654_thumb.png
26499621604411557788_thumb.png

Kod:
Video
ID                                       : 1
Format                                   : AVC
Format/Info                              : Advanced Video Codec
Format profile                           : High@L4.1
Format settings, CABAC                   : Yes
Format settings, ReFrames                : 5 frames
Codec ID                                 : V_MPEG4/ISO/AVC
Duration                                 : 1h 25mn
Bit rate                                 : 9 403 Kbps
Width                                    : 1 920 pixels
Height                                   : 816 pixels
Display aspect ratio                     : 2.35:1
Frame rate mode                          : Constant
Frame rate                               : 23.976 fps
Color space                              : YUV
Chroma subsampling                       : 4:2:0
Bit depth                                : 8 bits
Scan type                                : Progressive
Bits/(Pixel*Frame)                       : 0.250
Stream size                              : 5.52 GiB (84%)
Writing library                          : x264 core 104 r1674 d846e88
Encoding settings                        : cabac=1 / ref=5 / deblock=1:0:0 / analyse=0x3:0x113 / me=umh / subme=7 / psy=1 / psy_rd=1.00:0.15 / mixed_ref=1 / me_range=16 / chroma_me=1 / trellis=1 / 8x8dct=1 / cqm=0 / deadzone=21,11 / fast_pskip=0 / chroma_qp_offset=-3 / threads=12 / sliced_threads=0 / nr=0 / decimate=1 / interlaced=0 / constrained_intra=0 / bframes=3 / b_pyramid=2 / b_adapt=1 / b_bias=0 / direct=1 / weightb=1 / open_gop=0 / weightp=2 / keyint=250 / keyint_min=23 / scenecut=40 / intra_refresh=0 / rc_lookahead=40 / rc=2pass / mbtree=1 / bitrate=9403 / ratetol=1.0 / qcomp=0.60 / qpmin=10 / qpmax=51 / qpstep=4 / cplxblur=20.0 / qblur=0.5 / ip_ratio=1.40 / aq=1:1.00
Language                                 : English
Default                                  : Yes
Forced                                   : No

Audio
ID                                       : 2
Format                                   : DTS
Format/Info                              : Digital Theater Systems
Mode                                     : 16
Format settings, Endianness              : Big
Codec ID                                 : A_DTS
Duration                                 : 1h 25mn
Bit rate mode                            : Constant
Bit rate                                 : 1 509 Kbps
Channel(s)                               : 6 channels
Channel positions                        : Front: L C R, Side: L R, LFE
Sampling rate                            : 48.0 KHz
Bit depth                                : 24 bits
Compression mode                         : Lossy
Delay relative to video                  : 11ms
Stream size                              : 928 MiB (14%)
Language                                 : English
Default                                  : Yes
Forced                                   : No

Menu
00:00:00.000                             : en:00:00:00.000
00:04:46.786                             : en:00:04:46.786
00:10:53.528                             : en:00:10:53.528
00:15:48.698                             : en:00:15:48.698
00:20:51.625                             : en:00:20:51.625
00:26:37.429                             : en:00:26:37.429
00:31:51.576                             : en:00:31:51.576
00:36:22.555                             : en:00:36:22.555
00:42:08.568                             : en:00:42:08.568
00:47:23.466                             : en:00:47:23.466
00:51:09.316                             : en:00:51:09.316
00:56:17.124                             : en:00:56:17.124
01:02:26.159                             : en:01:02:26.159
01:07:41.808                             : en:01:07:41.808
01:14:33.427                             : en:01:14:33.427
01:20:25.237                             : en:01:20:25.237
Ara
Cevapla


Konu ile Alakalı Benzer Konular
Konular Yazar Yorumlar Okunma Son Yorum
  Ben Hur | 2016 | 720p | BluRay | x264 | GECKOS breath-10 0 59 27-11-2016, Saat: 12:44
Son Yorum: breath-10
  The Whole Truth | 2016 | 720p | BluRay | x264 breath-10 0 179 27-11-2016, Saat: 12:34
Son Yorum: breath-10
  Jason Bourne | 2016 | 720p | BluRay | x264 | SPARKS breath-10 0 46 18-11-2016, Saat: 19:47
Son Yorum: breath-10
  Suicide Squad | 2016 | 1080p | WEB-DL | H264 | AC3 | EVO breath-10 0 45 15-11-2016, Saat: 23:34
Son Yorum: breath-10
  Mechanic Resurrection | 2016 | 720p | BluRay | x264 | DD5 1 | HDC breath-10 0 63 10-11-2016, Saat: 21:10
Son Yorum: breath-10

Hızlı Menü:

Hakkımızda
Sitemizde yer alan tüm videolar, filmler kaynak kodları ile Turbobit, Uploaded, Ul.to v.b. dosya paylaşım sitelerinden alınmaktadır. Telif hakları sorumluluğu bu sitelere aittir. Dosyaların hiç biri sunucularımızda bulunmamaktadır. Yine de hak sahiplerinin talep etmesi halinde istenen içerik siteden kaldırılabilir. İletişim adresi sitemizde mevcuttur. İletişim / Contact (Reklam, Dmca, Telif vs):okaan9999@gmail.com
Forum