DivxDepo.NET - Film indir - Dizi indir - Oyun indir
Hoşgeldin, Ziyaretçi: Üye Ol
DivxDepo.Net'e Hoşgeldiniz :)
Umarım Aradığınızı Bulursunuz.İsteklerinizi İletişim Sayfamızdan bildirebilirsiniz.

DivxDepo.Net Önerdiklerimiz
Konuyu Oyla:
  • Toplam: 0 Oy - Ortalama: 0
  • 1
  • 2
  • 3
  • 4
  • 5
Changeling (2008) 1080p BluRay x264 DTS-FGT Konuyu Okuyanlar: 1 Ziyaretçi
#1
Changeling_2008_1080p_Blu_Ray_x264_DTS_FGT.png

Changeling.2008.1080p.BluRay.x264.DTS-FGT

Kod:
http://uploaded.net/file/mrlmys14/Changeling.2008.1080p.BluRay.x264.DTS-FGT.part03.rar
http://uploaded.net/file/j9r3044e/Changeling.2008.1080p.BluRay.x264.DTS-FGT.part04.rar
http://uploaded.net/file/nwzkbk0s/Changeling.2008.1080p.BluRay.x264.DTS-FGT.part02.rar
http://uploaded.net/file/kp8yz716/Changeling.2008.1080p.BluRay.x264.DTS-FGT.part01.rar
http://uploaded.net/file/rd90bn39/Changeling.2008.1080p.BluRay.x264.DTS-FGT.part05.rar
http://uploaded.net/file/wmu8h6nb/Changeling.2008.1080p.BluRay.x264.DTS-FGT.part06.rar
http://uploaded.net/file/vu1vf631/Changeling.2008.1080p.BluRay.x264.DTS-FGT.part07.rar
http://uploaded.net/file/t5o9ttji/Changeling.2008.1080p.BluRay.x264.DTS-FGT.part10.rar
http://uploaded.net/file/ci4d7jlc/Changeling.2008.1080p.BluRay.x264.DTS-FGT.part09.rar
http://uploaded.net/file/gpj1qxfp/Changeling.2008.1080p.BluRay.x264.DTS-FGT.part08.rar
http://uploaded.net/file/f87v17am/Changeling.2008.1080p.BluRay.x264.DTS-FGT.part11.rar

Kod:
http://uploadrocket.net/ke0yxnsv3gkk/Changeling.2008.1080p.BluRay.x264.DTS-FGT.part01.rar.html
http://uploadrocket.net/ywwb7lyple6n/Changeling.2008.1080p.BluRay.x264.DTS-FGT.part02.rar.html
http://uploadrocket.net/i8dsyhdymsz7/Changeling.2008.1080p.BluRay.x264.DTS-FGT.part03.rar.html
http://uploadrocket.net/6p1jmcllkmg6/Changeling.2008.1080p.BluRay.x264.DTS-FGT.part04.rar.html
http://uploadrocket.net/tsor3zg6b3sk/Changeling.2008.1080p.BluRay.x264.DTS-FGT.part05.rar.html
http://uploadrocket.net/7e87tsi1eh8j/Changeling.2008.1080p.BluRay.x264.DTS-FGT.part06.rar.html
http://uploadrocket.net/in1dlyp6fz36/Changeling.2008.1080p.BluRay.x264.DTS-FGT.part07.rar.html
http://uploadrocket.net/49xollnaux9y/Changeling.2008.1080p.BluRay.x264.DTS-FGT.part08.rar.html
http://uploadrocket.net/h4xq2yxef47j/Changeling.2008.1080p.BluRay.x264.DTS-FGT.part09.rar.html
http://uploadrocket.net/bqqocc0r1j6t/Changeling.2008.1080p.BluRay.x264.DTS-FGT.part10.rar.html
http://uploadrocket.net/28iykdrzufpq/Changeling.2008.1080p.BluRay.x264.DTS-FGT.part11.rar.html

Kod:
http://imdb.com/title/tt0824747/

15391457940828347585_thumb.png
19712699963513294982_thumb.png
92066475066671689755_thumb.png
31296996487709836222_thumb.png
11094526547546439196_thumb.png

Kod:
Video
ID                                       : 1
Format                                   : AVC
Format/Info                              : Advanced Video Codec
Format profile                           : High@L5
Format settings, CABAC                   : Yes
Format settings, ReFrames                : 8 frames
Codec ID                                 : V_MPEG4/ISO/AVC
Duration                                 : 2h 21mn
Bit rate                                 : 8 560 Kbps
Width                                    : 1 920 pixels
Height                                   : 800 pixels
Display aspect ratio                     : 2.40:1
Frame rate mode                          : Constant
Frame rate                               : 23.976 fps
Color space                              : YUV
Chroma subsampling                       : 4:2:0
Bit depth                                : 8 bits
Scan type                                : Progressive
Bits/(Pixel*Frame)                       : 0.232
Stream size                              : 8.29 GiB (83%)
Writing library                          : x264 core 66 r1112M f43e22a
Encoding settings                        : cabac=1 / ref=8 / deblock=1:-3:-3 / analyse=0x3:0x133 / me=umh / subme=9 / psy_rd=1.2:0.0 / mixed_ref=1 / me_range=32 / chroma_me=1 / trellis=2 / 8x8dct=1 / cqm=0 / deadzone=21,11 / chroma_qp_offset=-2 / threads=6 / nr=0 / decimate=0 / mbaff=0 / bframes=4 / b_pyramid=1 / b_adapt=2 / b_bias=0 / direct=3 / wpredb=1 / keyint=250 / keyint_min=25 / scenecut=40(pre) / rc=2pass / bitrate=8560 / ratetol=1.0 / qcomp=0.60 / qpmin=10 / qpmax=51 / qpstep=4 / cplxblur=20.0 / qblur=0.5 / ip_ratio=1.40 / pb_ratio=1.30 / aq=1:1.20
Language                                 : English
Default                                  : Yes
Forced                                   : No

Audio
ID                                       : 2
Format                                   : DTS
Format/Info                              : Digital Theater Systems
Mode                                     : 16
Format settings, Endianness              : Big
Codec ID                                 : A_DTS
Duration                                 : 2h 21mn
Bit rate mode                            : Constant
Bit rate                                 : 1 509 Kbps
Channel(s)                               : 6 channels
Channel positions                        : Front: L C R, Side: L R, LFE
Sampling rate                            : 48.0 KHz
Bit depth                                : 24 bits
Compression mode                         : Lossy
Stream size                              : 1.50 GiB (15%)
Language                                 : English
Default                                  : Yes
Forced                                   : No

Text
ID                                       : 3
Format                                   : UTF-8
Codec ID                                 : S_TEXT/UTF8
Codec ID/Info                            : UTF-8 Plain Text
Language                                 : English
Default                                  : Yes
Forced                                   : No
Ara
Cevapla


Konu ile Alakalı Benzer Konular
Konular Yazar Yorumlar Okunma Son Yorum
  Ben Hur | 2016 | 720p | BluRay | x264 | GECKOS breath-10 0 61 27-11-2016, Saat: 12:44
Son Yorum: breath-10
  The Whole Truth | 2016 | 720p | BluRay | x264 breath-10 0 181 27-11-2016, Saat: 12:34
Son Yorum: breath-10
  Jason Bourne | 2016 | 720p | BluRay | x264 | SPARKS breath-10 0 47 18-11-2016, Saat: 19:47
Son Yorum: breath-10
  Suicide Squad | 2016 | 1080p | WEB-DL | H264 | AC3 | EVO breath-10 0 49 15-11-2016, Saat: 23:34
Son Yorum: breath-10
  Mechanic Resurrection | 2016 | 720p | BluRay | x264 | DD5 1 | HDC breath-10 0 63 10-11-2016, Saat: 21:10
Son Yorum: breath-10

Hızlı Menü:

Hakkımızda
Sitemizde yer alan tüm videolar, filmler kaynak kodları ile Turbobit, Uploaded, Ul.to v.b. dosya paylaşım sitelerinden alınmaktadır. Telif hakları sorumluluğu bu sitelere aittir. Dosyaların hiç biri sunucularımızda bulunmamaktadır. Yine de hak sahiplerinin talep etmesi halinde istenen içerik siteden kaldırılabilir. İletişim adresi sitemizde mevcuttur. İletişim / Contact (Reklam, Dmca, Telif vs):okaan9999@gmail.com
Forum