DivxDepo.NET - Film indir - Dizi indir - Oyun indir
Hoşgeldin, Ziyaretçi: Üye Ol
DivxDepo.Net'e Hoşgeldiniz :)
Umarım Aradığınızı Bulursunuz.İsteklerinizi İletişim Sayfamızdan bildirebilirsiniz.

DivxDepo.Net Önerdiklerimiz
Konuyu Oyla:
  • Toplam: 0 Oy - Ortalama: 0
  • 1
  • 2
  • 3
  • 4
  • 5
Casino Royale (2006) 1080p BluRay x264-hV Konuyu Okuyanlar: 1 Ziyaretçi
#1
Casino_Royale_2006_1080p_Blu_Ray_x264_h_V.png

Casino.Royale.2006.1080p.BluRay.x264-hV

Kod:
http://uploaded.net/file/t7s77r8q/Casino.Royale.2006.1080p.BluRay.x264-hV.part01.rar
http://uploaded.net/file/u71yavtw/Casino.Royale.2006.1080p.BluRay.x264-hV.part03.rar
http://uploaded.net/file/z5ni1tqs/Casino.Royale.2006.1080p.BluRay.x264-hV.part02.rar
http://uploaded.net/file/co3mtb75/Casino.Royale.2006.1080p.BluRay.x264-hV.part04.rar
http://uploaded.net/file/2x0i1c5q/Casino.Royale.2006.1080p.BluRay.x264-hV.part06.rar
http://uploaded.net/file/7bkq2eqo/Casino.Royale.2006.1080p.BluRay.x264-hV.part05.rar
http://uploaded.net/file/tenh8ei3/Casino.Royale.2006.1080p.BluRay.x264-hV.part10.rar
http://uploaded.net/file/ch0q113s/Casino.Royale.2006.1080p.BluRay.x264-hV.part12.rar
http://uploaded.net/file/lwi14pkb/Casino.Royale.2006.1080p.BluRay.x264-hV.part08.rar
http://uploaded.net/file/c6ig18wx/Casino.Royale.2006.1080p.BluRay.x264-hV.part07.rar
http://uploaded.net/file/93rqjbp8/Casino.Royale.2006.1080p.BluRay.x264-hV.part09.rar
http://uploaded.net/file/k2o0qj89/Casino.Royale.2006.1080p.BluRay.x264-hV.part11.rar
http://uploaded.net/file/0zr050fw/Casino.Royale.2006.1080p.BluRay.x264-hV.part13.rar

Kod:
http://imdb.com/title/tt0381061/

18080379386168079478_thumb.png
93402579380693826583_thumb.png
89983870044662321713_thumb.png
31235314385534875083_thumb.png
04718041554292131386_thumb.png

Kod:
Video
ID                                       : 1
Format                                   : AVC
Format/Info                              : Advanced Video Codec
Format profile                           : High@L5.1
Format settings, CABAC                   : Yes
Format settings, ReFrames                : 8 frames
Codec ID                                 : V_MPEG4/ISO/AVC
Duration                                 : 2h 24mn
Bit rate                                 : 10.7 Mbps
Width                                    : 1 920 pixels
Height                                   : 800 pixels
Display aspect ratio                     : 2.40:1
Frame rate mode                          : Constant
Frame rate                               : 23.976 fps
Color space                              : YUV
Chroma subsampling                       : 4:2:0
Bit depth                                : 8 bits
Scan type                                : Progressive
Bits/(Pixel*Frame)                       : 0.291
Stream size                              : 10.6 GiB (86%)
Writing library                          : x264 core 54 svn-635M
Encoding settings                        : cabac=1 / ref=5 / deblock=1:-4:-4 / analyse=0x3:0x133 / me=umh / subme=6 / brdo=1 / mixed_ref=1 / me_range=16 / chroma_me=1 / trellis=1 / 8x8dct=1 / cqm=2 / deadzone=4,6 / chroma_qp_offset=0 / threads=2 / nr=0 / decimate=1 / mbaff=0 / bframes=3 / b_pyramid=1 / b_adapt=1 / b_bias=0 / direct=3 / wpredb=1 / bime=1 / keyint=250 / keyint_min=25 / scenecut=40(pre) / rc=2pass / bitrate=10718 / ratetol=1.0 / rceq='blurCplx^(1-qComp)' / qcomp=0.60 / qpmin=10 / qpmax=51 / qpstep=4 / cplxblur=20.0 / qblur=0.5 / ip_ratio=1.40 / pb_ratio=1.30 / zones / aq=1:0.3:15.0
Language                                 : English
Default                                  : Yes
Forced                                   : No

Audio
ID                                       : 2
Format                                   : DTS
Format/Info                              : Digital Theater Systems
Mode                                     : 16
Format settings, Endianness              : Big
Codec ID                                 : A_DTS
Duration                                 : 2h 24mn
Bit rate mode                            : Constant
Bit rate                                 : 1 510 Kbps
Channel(s)                               : 6 channels
Channel positions                        : Front: L C R, Side: L R, LFE
Sampling rate                            : 48.0 KHz
Bit depth                                : 24 bits
Compression mode                         : Lossy
Stream size                              : 1.52 GiB (12%)
Language                                 : English
Default                                  : Yes
Forced                                   : No

Text #1
ID                                       : 3
Format                                   : UTF-8
Codec ID                                 : S_TEXT/UTF8
Codec ID/Info                            : UTF-8 Plain Text
Language                                 : English
Default                                  : No
Forced                                   : No

Text #2
ID                                       : 4
Format                                   : UTF-8
Codec ID                                 : S_TEXT/UTF8
Codec ID/Info                            : UTF-8 Plain Text
Language                                 : Swedish
Default                                  : No
Forced                                   : No
Ara
Cevapla


Konu ile Alakalı Benzer Konular
Konular Yazar Yorumlar Okunma Son Yorum
  Ben Hur | 2016 | 720p | BluRay | x264 | GECKOS breath-10 0 62 27-11-2016, Saat: 12:44
Son Yorum: breath-10
  The Whole Truth | 2016 | 720p | BluRay | x264 breath-10 0 182 27-11-2016, Saat: 12:34
Son Yorum: breath-10
  Jason Bourne | 2016 | 720p | BluRay | x264 | SPARKS breath-10 0 48 18-11-2016, Saat: 19:47
Son Yorum: breath-10
  Suicide Squad | 2016 | 1080p | WEB-DL | H264 | AC3 | EVO breath-10 0 51 15-11-2016, Saat: 23:34
Son Yorum: breath-10
  Mechanic Resurrection | 2016 | 720p | BluRay | x264 | DD5 1 | HDC breath-10 0 65 10-11-2016, Saat: 21:10
Son Yorum: breath-10

Hızlı Menü:

Hakkımızda
Sitemizde yer alan tüm videolar, filmler kaynak kodları ile Turbobit, Uploaded, Ul.to v.b. dosya paylaşım sitelerinden alınmaktadır. Telif hakları sorumluluğu bu sitelere aittir. Dosyaların hiç biri sunucularımızda bulunmamaktadır. Yine de hak sahiplerinin talep etmesi halinde istenen içerik siteden kaldırılabilir. İletişim adresi sitemizde mevcuttur. İletişim / Contact (Reklam, Dmca, Telif vs):okaan9999@gmail.com
Forum