DivxDepo.NET - Film indir - Dizi indir - Oyun indir
Hoşgeldin, Ziyaretçi: Üye Ol
DivxDepo.Net'e Hoşgeldiniz :)
Umarım Aradığınızı Bulursunuz.İsteklerinizi İletişim Sayfamızdan bildirebilirsiniz.

DivxDepo.Net Önerdiklerimiz
Konuyu Oyla:
  • Toplam: 0 Oy - Ortalama: 0
  • 1
  • 2
  • 3
  • 4
  • 5
Camp Rock (2008) 1080p BluRay x264-SUNSPOT Konuyu Okuyanlar: 1 Ziyaretçi
#1
Camp_Rock_2008_1080p_Blu_Ray_x264_SUNSPOT.png

Camp.Rock.2008.1080p.BluRay.x264-SUNSPOT

Kod:
http://uploaded.net/file/t2hldgd4/Camp.Rock.2008.1080p.BluRay.x264-SUNSPOT.part01.rar
http://uploaded.net/file/3so6bgd3/Camp.Rock.2008.1080p.BluRay.x264-SUNSPOT.part05.rar
http://uploaded.net/file/rp2az5qg/Camp.Rock.2008.1080p.BluRay.x264-SUNSPOT.part07.rar
http://uploaded.net/file/m1hwnr5j/Camp.Rock.2008.1080p.BluRay.x264-SUNSPOT.part04.rar
http://uploaded.net/file/sho1u3qb/Camp.Rock.2008.1080p.BluRay.x264-SUNSPOT.part08.rar
http://uploaded.net/file/mpp2pet9/Camp.Rock.2008.1080p.BluRay.x264-SUNSPOT.part02.rar
http://uploaded.net/file/gmxxrea1/Camp.Rock.2008.1080p.BluRay.x264-SUNSPOT.part06.rar
http://uploaded.net/file/nawhyzwk/Camp.Rock.2008.1080p.BluRay.x264-SUNSPOT.part03.rar
http://uploaded.net/file/li7gtexs/Camp.Rock.2008.1080p.BluRay.x264-SUNSPOT.part09.rar

Kod:
http://uploadrocket.net/fhdyo3v0n1qf/Camp.Rock.2008.1080p.BluRay.x264-SUNSPOT.part01.rar.html
http://uploadrocket.net/8o8vhug3zbe1/Camp.Rock.2008.1080p.BluRay.x264-SUNSPOT.part02.rar.html
http://uploadrocket.net/dmdn85jlcbvs/Camp.Rock.2008.1080p.BluRay.x264-SUNSPOT.part03.rar.html
http://uploadrocket.net/n8j9i0n2fa39/Camp.Rock.2008.1080p.BluRay.x264-SUNSPOT.part04.rar.html
http://uploadrocket.net/k2vq9ollxt0h/Camp.Rock.2008.1080p.BluRay.x264-SUNSPOT.part05.rar.html
http://uploadrocket.net/vfvr2999blgw/Camp.Rock.2008.1080p.BluRay.x264-SUNSPOT.part06.rar.html
http://uploadrocket.net/bfudkc948gka/Camp.Rock.2008.1080p.BluRay.x264-SUNSPOT.part07.rar.html
http://uploadrocket.net/7qucw67ai2m3/Camp.Rock.2008.1080p.BluRay.x264-SUNSPOT.part08.rar.html
http://uploadrocket.net/hyz5drv9oiny/Camp.Rock.2008.1080p.BluRay.x264-SUNSPOT.part09.rar.html

Kod:
http://rapidgator.net/file/7c32aaaf5f434a4e9fa8bb4e49ae56de/Camp.Rock.2008.1080p.BluRay.x264-SUNSPOT.part07.rar.html
http://rapidgator.net/file/177259f9f4482a6b39fa484da7965bca/Camp.Rock.2008.1080p.BluRay.x264-SUNSPOT.part02.rar.html
http://rapidgator.net/file/241bd686f357861f5954f307d33618d6/Camp.Rock.2008.1080p.BluRay.x264-SUNSPOT.part04.rar.html
http://rapidgator.net/file/0906aa709a46ab65e2f0680bae0ed7db/Camp.Rock.2008.1080p.BluRay.x264-SUNSPOT.part08.rar.html
http://rapidgator.net/file/b045f1aa79e9137aaa96bdee98d09052/Camp.Rock.2008.1080p.BluRay.x264-SUNSPOT.part05.rar.html
http://rapidgator.net/file/94557a00be4a4c9588a70d1fcb754037/Camp.Rock.2008.1080p.BluRay.x264-SUNSPOT.part03.rar.html
http://rapidgator.net/file/183c3f072c73a00a41271849a356cf63/Camp.Rock.2008.1080p.BluRay.x264-SUNSPOT.part06.rar.html
http://rapidgator.net/file/b6c502c8a51487b2af8c1d3f7738c82c/Camp.Rock.2008.1080p.BluRay.x264-SUNSPOT.part01.rar.html
http://rapidgator.net/file/725105ae173862d7b3858b03b5859914/Camp.Rock.2008.1080p.BluRay.x264-SUNSPOT.part09.rar.html

Kod:
http://imdb.com/title/tt1055366/

Camp_Rock_2008_1080p_Blu_Ray_x264_SUNSPOT_s.jpg

Kod:
Video
ID                                       : 1
Format                                   : AVC
Format/Info                              : Advanced Video Codec
Format profile                           : High@L4.1
Format settings, CABAC                   : Yes
Format settings, ReFrames                : 4 frames
Codec ID                                 : V_MPEG4/ISO/AVC
Duration                                 : 1h 38mn
Bit rate                                 : 10.9 Mbps
Width                                    : 1 920 pixels
Height                                   : 1 080 pixels
Display aspect ratio                     : 16:9
Frame rate mode                          : Constant
Frame rate                               : 23.976 fps
Color space                              : YUV
Chroma subsampling                       : 4:2:0
Bit depth                                : 8 bits
Scan type                                : Progressive
Bits/(Pixel*Frame)                       : 0.219
Stream size                              : 7.35 GiB (92%)
Writing library                          : x264 core 61 r948M 9d4d168
Encoding settings                        : cabac=1 / ref=4 / deblock=1:0:0 / analyse=0x3:0x113 / me=umh / subme=7 / psy_rd=1.0:1.0 / brdo=1 / mixed_ref=1 / me_range=24 / chroma_me=1 / trellis=2 / 8x8dct=1 / cqm=0 / deadzone=21,11 / chroma_qp_offset=-4 / threads=6 / nr=0 / decimate=1 / mbaff=0 / bframes=12 / b_pyramid=1 / b_adapt=1 / b_bias=0 / direct=1 / wpredb=1 / bime=1 / keyint=299 / keyint_min=25 / scenecut=40(pre) / rc=2pass / bitrate=10895 / ratetol=1.0 / rceq='blurCplx^(1-qComp)' / qcomp=1.00 / qpmin=10 / qpmax=51 / qpstep=4 / cplxblur=20.0 / qblur=0.5 / ip_ratio=1.40 / pb_ratio=1.30 / aq=2:1.00
Default                                  : Yes
Forced                                   : No

Audio
ID                                       : 2
Format                                   : AC-3
Format/Info                              : Audio Coding 3
Mode extension                           : CM (complete main)
Format settings, Endianness              : Big
Codec ID                                 : A_AC3
Duration                                 : 1h 38mn
Bit rate mode                            : Constant
Bit rate                                 : 640 Kbps
Channel(s)                               : 6 channels
Channel positions                        : Front: L C R, Side: L R, LFE
Sampling rate                            : 48.0 KHz
Compression mode                         : Lossy
Stream size                              : 451 MiB (6%)
Default                                  : Yes
Forced                                   : No
Ara
Cevapla


Konu ile Alakalı Benzer Konular
Konular Yazar Yorumlar Okunma Son Yorum
  Ben Hur | 2016 | 720p | BluRay | x264 | GECKOS breath-10 0 45 27-11-2016, Saat: 12:44
Son Yorum: breath-10
  The Whole Truth | 2016 | 720p | BluRay | x264 breath-10 0 173 27-11-2016, Saat: 12:34
Son Yorum: breath-10
  Jason Bourne | 2016 | 720p | BluRay | x264 | SPARKS breath-10 0 37 18-11-2016, Saat: 19:47
Son Yorum: breath-10
  Suicide Squad | 2016 | 1080p | WEB-DL | H264 | AC3 | EVO breath-10 0 39 15-11-2016, Saat: 23:34
Son Yorum: breath-10
  Mechanic Resurrection | 2016 | 720p | BluRay | x264 | DD5 1 | HDC breath-10 0 56 10-11-2016, Saat: 21:10
Son Yorum: breath-10

Hızlı Menü:

Hakkımızda
Sitemizde yer alan tüm videolar, filmler kaynak kodları ile Turbobit, Uploaded, Ul.to v.b. dosya paylaşım sitelerinden alınmaktadır. Telif hakları sorumluluğu bu sitelere aittir. Dosyaların hiç biri sunucularımızda bulunmamaktadır. Yine de hak sahiplerinin talep etmesi halinde istenen içerik siteden kaldırılabilir. İletişim adresi sitemizde mevcuttur. İletişim / Contact (Reklam, Dmca, Telif vs):okaan9999@gmail.com
Forum