DivxDepo.NET - Film indir - Dizi indir - Oyun indir
Hoşgeldin, Ziyaretçi: Üye Ol
DivxDepo.Net'e Hoşgeldiniz :)
Umarım Aradığınızı Bulursunuz.İsteklerinizi İletişim Sayfamızdan bildirebilirsiniz.

DivxDepo.Net Önerdiklerimiz
Konuyu Oyla:
  • Toplam: 0 Oy - Ortalama: 0
  • 1
  • 2
  • 3
  • 4
  • 5
Born On The Fourth Of July (1989) 1080p INTERNAL BluRay x264-CLASSiC Konuyu Okuyanlar: 1 Ziyaretçi
#1
acd931d1be8d321ef9224807abd1bb53650fb45c.jpg

Born.On.The.Fourth.Of.July.1989.1080p.INTERNAL.BluRay.x264-CLASSiC


Kod:
http://uploaded.net/file/1hcypnir/Born.On.The.Fourth.Of.July.1989.1080p.INTERNAL.BluRay.x264-CLASSiC.part1.rar
http://uploaded.net/file/zm5b1d9y/Born.On.The.Fourth.Of.July.1989.1080p.INTERNAL.BluRay.x264-CLASSiC.part2.rar
http://uploaded.net/file/wo4t9yuu/Born.On.The.Fourth.Of.July.1989.1080p.INTERNAL.BluRay.x264-CLASSiC.part4.rar
http://uploaded.net/file/s1x4ybqq/Born.On.The.Fourth.Of.July.1989.1080p.INTERNAL.BluRay.x264-CLASSiC.part5.rar
http://uploaded.net/file/taokfgws/Born.On.The.Fourth.Of.July.1989.1080p.INTERNAL.BluRay.x264-CLASSiC.part3.rar
http://uploaded.net/file/nnfq1r32/Born.On.The.Fourth.Of.July.1989.1080p.INTERNAL.BluRay.x264-CLASSiC.part6.rar


Kod:
http://rapidgator.net/file/b6f54fed03c821278161c904a1344a88/Born.On.The.Fourth.Of.July.1989.1080p.INTERNAL.BluRay.x264-CLASSiC.part2.rar.html
http://rapidgator.net/file/242e4dee09b38a502c638c321cfbd345/Born.On.The.Fourth.Of.July.1989.1080p.INTERNAL.BluRay.x264-CLASSiC.part5.rar.html
http://rapidgator.net/file/5b056979a5df61adec067bc44da96a84/Born.On.The.Fourth.Of.July.1989.1080p.INTERNAL.BluRay.x264-CLASSiC.part1.rar.html
http://rapidgator.net/file/c61b158fb99f1cde290b6aace046e326/Born.On.The.Fourth.Of.July.1989.1080p.INTERNAL.BluRay.x264-CLASSiC.part4.rar.html
http://rapidgator.net/file/b8f133bed74a3f041900654092487bd9/Born.On.The.Fourth.Of.July.1989.1080p.INTERNAL.BluRay.x264-CLASSiC.part3.rar.html
http://rapidgator.net/file/29d139e494edf997c9c286610b6389eb/Born.On.The.Fourth.Of.July.1989.1080p.INTERNAL.BluRay.x264-CLASSiC.part6.rar.html


Kod:
http://imdb.com/title/tt0096969/


88199095070639811107_thumb.png
78934692005106402126_thumb.png
76782382341144023693_thumb.png
61082373763773259631_thumb.png
71388310487830930753_thumb.png
27943308387425203146_thumb.png

Kod:
Video
ID                                       : 1
Format                                   : AVC
Format/Info                              : Advanced Video Codec
Format profile                           : High@L4.1
Format settings, CABAC                   : Yes
Format settings, ReFrames                : 5 frames
Codec ID                                 : V_MPEG4/ISO/AVC
Duration                                 : 2h 24mn
Bit rate                                 : 9 322 Kbps
Width                                    : 1 920 pixels
Height                                   : 816 pixels
Display aspect ratio                     : 2.35:1
Frame rate mode                          : Constant
Frame rate                               : 23.976 fps
Color space                              : YUV
Chroma subsampling                       : 4:2:0
Bit depth                                : 8 bits
Scan type                                : Progressive
Bits/(Pixel*Frame)                       : 0.248
Stream size                              : 9.17 GiB (84%)
Writing library                          : x264 core 133 r2334 a3ac64b
Encoding settings                        : cabac=1 / ref=5 / deblock=1:0:0 / analyse=0x3:0x133 / me=umh / subme=7 / psy=1 / psy_rd=1.00:0.00 / mixed_ref=1 / me_range=16 / chroma_me=1 / trellis=1 / 8x8dct=1 / cqm=0 / deadzone=21,11 / fast_pskip=0 / chroma_qp_offset=-2 / threads=12 / lookahead_threads=2 / sliced_threads=0 / nr=0 / decimate=1 / interlaced=0 / bluray_compat=0 / constrained_intra=0 / bframes=3 / b_pyramid=2 / b_adapt=2 / b_bias=0 / direct=3 / weightb=1 / open_gop=0 / weightp=2 / keyint=250 / keyint_min=23 / scenecut=40 / intra_refresh=0 / rc_lookahead=50 / rc=2pass / mbtree=1 / bitrate=9322 / ratetol=1.0 / qcomp=0.60 / qpmin=0 / qpmax=69 / qpstep=4 / cplxblur=20.0 / qblur=0.5 / ip_ratio=1.40 / aq=1:1.00
Language                                 : English
Default                                  : Yes
Forced                                   : No

Audio
ID                                       : 2
Format                                   : DTS
Format/Info                              : Digital Theater Systems
Mode                                     : 16
Format settings, Endianness              : Big
Codec ID                                 : A_DTS
Duration                                 : 2h 24mn
Bit rate mode                            : Constant
Bit rate                                 : 1 509 Kbps
Channel(s)                               : 6 channels
Channel positions                        : Front: L C R, Side: L R, LFE
Sampling rate                            : 48.0 KHz
Bit depth                                : 24 bits
Compression mode                         : Lossy
Stream size                              : 1.52 GiB (14%)
Language                                 : English
Default                                  : Yes
Forced                                   : No
Ara
Cevapla


Konu ile Alakalı Benzer Konular
Konular Yazar Yorumlar Okunma Son Yorum
  Ben Hur | 2016 | 720p | BluRay | x264 | GECKOS breath-10 0 53 27-11-2016, Saat: 12:44
Son Yorum: breath-10
  The Whole Truth | 2016 | 720p | BluRay | x264 breath-10 0 174 27-11-2016, Saat: 12:34
Son Yorum: breath-10
  Jason Bourne | 2016 | 720p | BluRay | x264 | SPARKS breath-10 0 38 18-11-2016, Saat: 19:47
Son Yorum: breath-10
  Suicide Squad | 2016 | 1080p | WEB-DL | H264 | AC3 | EVO breath-10 0 40 15-11-2016, Saat: 23:34
Son Yorum: breath-10
  Mechanic Resurrection | 2016 | 720p | BluRay | x264 | DD5 1 | HDC breath-10 0 58 10-11-2016, Saat: 21:10
Son Yorum: breath-10

Hızlı Menü:

Hakkımızda
Sitemizde yer alan tüm videolar, filmler kaynak kodları ile Turbobit, Uploaded, Ul.to v.b. dosya paylaşım sitelerinden alınmaktadır. Telif hakları sorumluluğu bu sitelere aittir. Dosyaların hiç biri sunucularımızda bulunmamaktadır. Yine de hak sahiplerinin talep etmesi halinde istenen içerik siteden kaldırılabilir. İletişim adresi sitemizde mevcuttur. İletişim / Contact (Reklam, Dmca, Telif vs):okaan9999@gmail.com
Forum